Вход на сайт

Имя:
Пароль:

· Забыли пароль?
logo
Портал Форум
Регистрация Вход


new_topic  reply_topic

  (Eurodance) DEADLY SINS - We Are Going On Down (Remix) 1993, FLAC tracks, lossless

pic
Год выпуска: 1993
Производитель: Germany
Жанр: Eurodance
Лейбл - Номер по каталогу: Ultraphonic – 4509-93848-2, EastWest – 4509-93848-2
Продолжительность: 00:13:26

Тип издания: сингл
Аудио кодек: FLAC
Тип рипа: tracks
Битрейт аудио: lossless

SPARS Code: ADD
Label Code: LC 1557
Barcode: 7 4509-93848-2 1
Distribution Code: CA 773
Rights Society: GEMA/BIEM
Mould SID Code: 18 W
Matrix Code: 450993848-2 WME

Треклист:

1. We Are Going On Down (Remix Radio Edit) (4:25)
2. We Are Going On Down (Remix Extended) (6:13)
3. We Are Going On Down (Original Radio Edit) (4:13)

Доп. информация: .

Код:

Exact Audio Copy V1.0 beta 3 from 29. August 2011

Отчёт EAC об извлечении, выполненном 1. октября 2021, 16:19

DEADLY SINS / We Are Going On Down (Remix) 1993

Дисковод: ASUS    DRW-1814BL   Adapter: 4  ID: 0

Режим чтения                 : Достоверность
Использование точного потока : Да
Отключение кэша аудио        : Да
Использование указателей C2  : Нет

Коррекция смещения при чтении                     : 6
Способность читать области Lead-in и Lead-out     : Нет
Заполнение пропущенных сэмплов тишиной            : Да
Удаление блоков с тишиной в начале и конце        : Нет
При вычислениях CRC использовались нулевые сэмплы : Да
Интерфейс                                         : Встроенный Win32-интерфейс для Win NT/2000
Обработка зазоров                                 : Добавлено к предыдущему треку

Выходной формат          : Пользовательский кодировщик
Выбранный битрейт        : 1024 kBit/s
Качество                 : Высокий
Добавление ID3-тега      : Нет
Утилита сжатия           : C:\Program Files (x86)\Exact Audio Copy\FLAC\FLAC.EXE
Дополнительные параметры : -6 -V -T "ARTIST=%artist%" -T "TITLE=%title%" -T "ALBUM=%albumtitle%" -T "DATE=%year%" -T "TRACKNUMBER=%tracknr%" -T "GENRE=%genre%" -T "COMMENT=%comment%" -T "BAND=%albuminterpret%" -T "ALBUMARTIST=%albuminterpret%" -T "COMPOSER=%composer%" %haslyrics%--tag-from-file=LYRICS="%lyricsfile%"%haslyrics% -T "DISCNUMBER=%cdnumber%" -T "TOTALDISCS=%totalcds%" -T "TOTALTRACKS=%numtracks%" %hascover%--picture="%coverfile%"%hascover% %source% -o %dest%

TOC извлечённого CD

     Трек |   Старт  | Длительность | Начальный сектор | Конечный сектор
    ---------------------------------------------------------------------
       1  |  0:00.00 |    4:26.00   |           0      |      19949     
       2  |  4:26.00 |    5:28.00   |       19950      |      44549     
       3  |  9:54.00 |    3:32.00   |       44550      |      60449     

Трек  1

     Имя файла E:\This EAC has made Federal\DEADLY SINS - 1 - We Are Going On Down (Remix Radio Edit).wav

     Длина предзазора  0:00:02.00

     Пиковый уровень 98.8 %
     Скорость извлечения 2.6 X
     Качество трека 100.0 %
     CRC теста A441564A
     CRC копии A441564A
     Точное извлечение (достоверность 3)  [962EE7CD]  (AR v2)
     Копирование... OK

Трек  2

     Имя файла E:\This EAC has made Federal\DEADLY SINS - 2 - We Are Going On Down (Remix Extended).wav

     Длина предзазора  0:00:02.00

     Пиковый уровень 98.8 %
     Скорость извлечения 1.9 X
     Качество трека 99.9 %
     CRC теста 10740A29
     CRC копии 10740A29
     Точное извлечение (достоверность 3)  [2AD7FC82]  (AR v2)
     Копирование... OK

Трек  3

     Имя файла E:\This EAC has made Federal\DEADLY SINS - 3 - We Are Going On Down (Original Radio Edit).wav

     Длина предзазора  0:00:02.00

     Пиковый уровень 97.6 %
     Скорость извлечения 3.2 X
     Качество трека 100.0 %
     CRC теста 1A5A08B6
     CRC копии 1A5A08B6
     Точное извлечение (достоверность 3)  [21BC3B81]  (AR v2)
     Копирование... OK

Все треки извлечены точно

Ошибок не произошло

Конец отчёта

==== Контрольная сумма отчёта A70EFA5D70ACE5AEF3BF50379933E80C2BC44E37147B4A8CC8D73BAEDAE3EA25 ====

Страница 1 из 1

new_topic  reply_topic

Текущее время: 23-Янв 16:08
Часовой пояс: GMT + 4

m Сделано с любовью PR-CY.ru Каталог webplus.info