Вход на сайт

Имя:
Пароль:

· Забыли пароль?
logo
Портал Форум
Регистрация Вход


Статистика раздачи

Размер: 406 MB | Зарегистрирован: 11 лет | Торрент скачан: 0 раз
new_topic  reply_topic

  (Pop) Максибит - Мы совсем не курим гаш... 1997, APE (image + .cue)

pic
Год выпуска: 1997
Страна: Германия
Жанр: Pop
Номер #: 3194053 (Solo Florentin)
Продолжительность: ~ 55 минут


Тип издания: альбом
Аудио кодек: APE
Тип рипа: (image + .cue)
Битрейт аудио: lossless


Трэклист:
01. Там, за рекой
02. Я и ты
03. Мы совсем не курим гаш
04. Все в твоих руках
05. Знаю, что любишь
06. Диск-жокей
07. К солнцу
08. На зарядку становись!!!
09. Я буду ждать
10. Страна Техно-бит
11. Мистер Рок-н-ролл
12. Na zdorowje

Код:

Exact Audio Copy V0.99 prebeta 5 from 4. May 2009

Отчёт EAC об извлечении, выполненном 2. сентября 2010, 18:43

Максибит / Мы совсем не курим гаш...

Дисковод: PLEXTOR DVDR   PX-800A   Adapter: 0  ID: 0

Режим чтения                 : Достоверность
Использование точного потока : Да
Отключение кэша аудио        : Да
Использование указателей C2  : Нет

Коррекция смещения при чтении                     : 48
Способность читать области Lead-in и Lead-out     : Нет
Заполнение пропущенных сэмплов тишиной            : Да
Удаление блоков с тишиной в начале и конце        : Нет
При вычислениях CRC использовались нулевые сэмплы : Да
Интерфейс                                         : Встроенный Win32-интерфейс для Win NT/2000

Выходной формат : Внутренние WAV-операции
Формат сэмплов  : 44.100 Гц; 16 бит; стерео

TOC извлечённого CD

     Трек |   Старт  | Длительность | Начальный сектор | Конечный сектор
    ---------------------------------------------------------------------
       1  |  0:00.00 |    5:14.53   |           0      |      23602     
       2  |  5:14.53 |    4:22.35   |       23603      |      43287     
       3  |  9:37.13 |    4:34.46   |       43288      |      63883     
       4  | 14:11.59 |    4:58.42   |       63884      |      86275     
       5  | 19:10.26 |    5:09.41   |       86276      |     109491     
       6  | 24:19.67 |    5:07.37   |      109492      |     132553     
       7  | 29:27.29 |    4:39.58   |      132554      |     153536     
       8  | 34:07.12 |    4:06.05   |      153537      |     171991     
       9  | 38:13.17 |    4:25.09   |      171992      |     191875     
      10  | 42:38.26 |    4:22.62   |      191876      |     211587     
      11  | 47:01.13 |    3:50.36   |      211588      |     228873     
      12  | 50:51.49 |    3:48.17   |      228874      |     245990     

Характеристики диапазона извлечения и сообщения об ошибках

Выбранный диапазон

     Имя файла C:\Temp\Образы\Максибит - Мы совсем не курим гаш....wav

     Пиковый уровень 100.0 %
     Качество диапазона 100.0 %
     CRC теста 9D9E81B5
     CRC копии 9D9E81B5
     Копирование... OK

Ошибок не произошло

 
AccurateRip: сводка
 
Трек  1  нет в базе данных
Трек  2  нет в базе данных
Трек  3  нет в базе данных
Трек  4  нет в базе данных
Трек  5  нет в базе данных
Трек  6  нет в базе данных
Трек  7  нет в базе данных
Трек  8  нет в базе данных
Трек  9  нет в базе данных
Трек 10  нет в базе данных
Трек 11  нет в базе данных
Трек 12  нет в базе данных
 
Ни одного трека нет в базе AccurateRip

Конец отчёта
Данный материал из частной коллекции пользователя и носит характер объявления. Если вас заинтересовала данная тема, вы можете связаться с автором сообщения и обсудить детали обмена. Для более подробной информации прочтите правила обмена.
Зачётная CD! Макс Дергунов тогда неплохие треки писал...Да и сейчас неплохо, но уже какие-то рингтоны получаются.
dimka007здорого я так хочу скачать максибит я собираю коллекцию русскую танцивальную музыку 90х
как это зде
лать
azatka информация влевом верхнем углу на главной форума.
не могу скачать макси бит помогите
azatka чем помочь?
у меня спрашивает вы не состаити в группе
azatka у меня даже нет желания вам отвечать, читайте важную информацию написаную для вас

Цитата:

У вас нет денег, чтобы купить хлеб! Где взять деньги? Пойти работать и.т.д
Хороший альбом.

olleg писал(а):

Хороший альбом.
Для всех любителей techno
Блин замучали ограничения
Kashim87
ну а ты как хотел? скачать и уйти
ну народ, это издевательство , весь инет перерыл, не смог найти одну песню, даже не альбом а одну песню год с лишним искал в цифровом формате, и вот тут я её нашёл и меня и тут обламали, помогите чем можете люди добрые , ну не чем мне тут обменяться, ну нечего мне вам предложить а вот активно пообщаться могу , только сколько мне надо общаться чтобы дали добро на скачку этого торрента?
creser купи диск или образ, я его продаю.

Страница 1 из 1

new_topic  reply_topic

Текущее время: 23-Окт 15:41
Часовой пояс: GMT + 4

m Сделано с любовью PR-CY.ru Каталог webplus.info