Вход на сайт

Имя:
Пароль:

· Забыли пароль?
logo
Портал Форум
Регистрация Вход


new_topic  reply_topic

  (Euro House) Various - Дискотека Арлекина Vol. 37 1999, FLAC (image + .cue)

pic
Год выпуска: 1999
Страна: Россия
Жанр: Euro House
Номер #: 4601 136 500 134 Mega Records
Продолжительность: ~ 73 минуты


Тип издания: сборник
Аудио кодек: FLAC
Тип рипа: (image + .cue)
Битрейт аудио: lossless


Трэклист:

01. Combayah - Mr. Bambolero
02. 2 Alive - Tell It To My Heart
03. T.I.P.I.C.A.L. feat. Kimara - Music Is My Life
04. Cafe Chantal - Cafe Chantal
05. Cher feat. Eric Singleton - Believe
06. Mark Ashley - Mareen
07. Den Harrow - Let Me Go
08. Dear Mom - I Wanna Know
09. Supertrip - C'est La Vie
10. Salomee - Mr. Sunshine
11. Ken Laszlo - What's Your Love
12. Jessica - Maria Magdalena
13. Miss Papaya - Casanova
14. Radiorama - Beautiful Man
15. Inginity - Come On And Dance
16. Cripsy - The Game
17. Sazza - Here We Go
18. C. Jay - Love Of Your Life
19. Kate - Don't break my heart


Доп. информация: Данная серия сборников выходила ввиде апконверта на дисках и кассетах

Код:

Exact Audio Copy V0.99 prebeta 5 from 4. May 2009

Отчёт EAC об извлечении, выполненном 14. января 2011, 4:56

Various / Дискотека Арлекина Vol. 37

Дисковод: JLMS    XJ-HD166S   Adapter: 0  ID: 1

Режим чтения                 : Достоверность
Использование точного потока : Да
Отключение кэша аудио        : Да
Использование указателей C2  : Нет

Коррекция смещения при чтении                     : 12
Способность читать области Lead-in и Lead-out     : Нет
Заполнение пропущенных сэмплов тишиной            : Да
Удаление блоков с тишиной в начале и конце        : Нет
При вычислениях CRC использовались нулевые сэмплы : Да
Интерфейс                                         : Встроенный Win32-интерфейс для Win NT/2000

Выходной формат : Внутренние WAV-операции
Формат сэмплов  : 44.100 Гц; 16 бит; стерео

TOC извлечённого CD

     Трек |   Старт  | Длительность | Начальный сектор | Конечный сектор
    ---------------------------------------------------------------------
       1  |  0:00.00 |    4:11.27   |           0      |      18851     
       2  |  4:11.27 |    3:32.11   |       18852      |      34762     
       3  |  7:43.38 |    4:02.21   |       34763      |      52933     
       4  | 11:45.59 |    3:22.17   |       52934      |      68100     
       5  | 15:08.01 |    5:10.71   |       68101      |      91421     
       6  | 20:18.72 |    5:28.72   |       91422      |     116093     
       7  | 25:47.69 |    3:32.43   |      116094      |     132036     
       8  | 29:20.37 |    3:29.14   |      132037      |     147725     
       9  | 32:49.51 |    3:37.62   |      147726      |     164062     
      10  | 36:27.38 |    3:35.62   |      164063      |     180249     
      11  | 40:03.25 |    2:49.51   |      180250      |     192975     
      12  | 42:53.01 |    3:05.24   |      192976      |     206874     
      13  | 45:58.25 |    3:15.68   |      206875      |     221567     
      14  | 49:14.18 |    5:22.54   |      221568      |     245771     
      15  | 54:36.72 |    4:06.54   |      245772      |     264275     
      16  | 58:43.51 |    2:49.51   |      264276      |     277001     
      17  | 61:33.27 |    4:30.51   |      277002      |     297302     
      18  | 66:04.03 |    2:40.73   |      297303      |     309375     
      19  | 68:45.01 |    3:26.22   |      309376      |     324847     

Характеристики диапазона извлечения и сообщения об ошибках

Выбранный диапазон

     Имя файла C:\Temp\Образы\Various - Дискотека Арлекина Vol. 37.wav

     Пиковый уровень 100.0 %
     Качество диапазона 100.0 %
     CRC теста B12B6BD9
     CRC копии B12B6BD9
     Копирование... OK

Ошибок не произошло

Конец отчёта
super :-)
maxfm волшебное слово видно не правильно запостил
Хочу скачать рипы данных сборников,на данный момент актуальны из представленных здесь 37 и 44 ,желательно со сканами, с условием дальнейшей их публикации на общедоступных ресурсах для "неблагодарных личеров" :-) в виде полной коллекции в лосе. Взамен готов сделать рипы релизов Танцевального рая начала-середины 2007 года, если они вам интересны и эти релизы не делать общедоступными. (можно будет выбрать из списка - их штук 30-40 может больше, точно не помню, я их большинство не слушал, небольшой экскурс по наименованиям можно посмотреть на сайте одного из менеджеров ТанцРая www.houzer.ru/cat2-21.html - есть многое из этих релизов , ну и с соседних страниц. Если принципиально интересно то сфоткаю то что есть)

Да, у меня есть дурацкая привычка держать свои обещания и соблюдать договорённости. Делаю релизы только своего материала, чужие материалы использую только по согласованию с автором релиза.
Ребята может кто подскажет как скачать песню Cafe Chantal - Cafe Chantal (в FLAC) из Дискотека Арлекина Vol. 37, никак не получается) Заранее большое спасибо! В замен могу поделиться подобным редким треком в WAVE.
super

Страница 1 из 1

new_topic  reply_topic

Текущее время: 25-Янв 12:05
Часовой пояс: GMT + 4

m Сделано с любовью PR-CY.ru Каталог webplus.info