Вход на сайт

Имя:
Пароль:

· Забыли пароль?
logo
Портал Форум
Регистрация Вход


new_topic  reply_topic

  (Pop) David Tavare - La Vida Viene Y Va 2008, FLAC (image + .cue)

pic
Год выпуска: 2008
Страна: Россия
Жанр: Pop
Номер #: MLCD-0920
Продолжительность: 00:48:43

Тип издания: альбом
Аудио кодек: FLAC
Тип рипа: (image + .cue)
Битрейт аудио: lossless
Трэклист:

01. Саn You Feel The Love Tonight
02. Centerfold
03. If You Don't Know My Name (You Can Call Me Baby)
04. En La Oscuridad
05. Hot Summer Night (Oh La La La)
06. I Never Go Home
07. Keep On Movin' (NPC)
08. La Vida Viene У Va
09. I Wish You A Merry Xmas
10. Quieio Mas
11. Solo Tu
12. Stay With Me Tonight
13. Summerlove

Код:

Exact Audio Copy V0.99 prebeta 5 from 4. May 2009

Отчёт EAC об извлечении, выполненном 22. октября 2010, 15:07

David Tavare / La Vida Viene Y Va

Дисковод: HL-DT-STDVDRAM GSA-T50N   Adapter: 2  ID: 0

Режим чтения                 : Достоверность
Использование точного потока : Да
Отключение кэша аудио        : Да
Использование указателей C2  : Нет

Коррекция смещения при чтении                     : 667
Способность читать области Lead-in и Lead-out     : Нет
Заполнение пропущенных сэмплов тишиной            : Да
Удаление блоков с тишиной в начале и конце        : Нет
При вычислениях CRC использовались нулевые сэмплы : Да
Интерфейс                                         : Встроенный Win32-интерфейс для Win NT/2000

Выходной формат : Внутренние WAV-операции
Формат сэмплов  : 44.100 Гц; 16 бит; стерео

TOC извлечённого CD

     Трек |   Старт  | Длительность | Начальный сектор | Конечный сектор
    ---------------------------------------------------------------------
       1  |  0:00.00 |    3:28.05   |           0      |      15604     
       2  |  3:28.05 |    3:07.25   |       15605      |      29654     
       3  |  6:35.30 |    3:46.10   |       29655      |      46614     
       4  | 10:21.40 |    3:18.72   |       46615      |      61536     
       5  | 13:40.37 |    3:05.26   |       61537      |      75437     
       6  | 16:45.63 |    4:33.66   |       75438      |      95978     
       7  | 21:19.54 |    3:30.24   |       95979      |     111752     
       8  | 24:50.03 |    3:19.05   |      111753      |     126682     
       9  | 28:09.08 |    3:44.60   |      126683      |     143542     
      10  | 31:53.68 |    3:51.45   |      143543      |     160912     
      11  | 35:45.38 |    4:22.46   |      160913      |     180608     
      12  | 40:08.09 |    3:51.07   |      180609      |     197940     
      13  | 43:59.16 |    3:22.48   |      197941      |     213138     

Характеристики диапазона извлечения и сообщения об ошибках

Выбранный диапазон

     Имя файла C:\Users\Alex\Desktop\David Tavare\David Tavare - La Vida Viene Y Va.wav

     Пиковый уровень 100.0 %
     Качество диапазона 100.0 %
     CRC теста 97ABB9EB
     CRC копии 97ABB9EB
     Копирование... OK

Ошибок не произошло

 
AccurateRip: сводка
 
Трек  1  нет в базе данных
Трек  2  нет в базе данных
Трек  3  нет в базе данных
Трек  4  нет в базе данных
Трек  5  нет в базе данных
Трек  6  нет в базе данных
Трек  7  нет в базе данных
Трек  8  нет в базе данных
Трек  9  нет в базе данных
Трек 10  нет в базе данных
Трек 11  нет в базе данных
Трек 12  нет в базе данных
Трек 13  нет в базе данных
 
Ни одного трека нет в базе AccurateRip

Конец отчёта
teşekür
i want "If You Don't Know My Name (You Can Call Me Baby) (Londonbeat remix)"

Страница 1 из 1

new_topic  reply_topic

Текущее время: 25-Янв 11:18
Часовой пояс: GMT + 4

m Сделано с любовью PR-CY.ru Каталог webplus.info