Вход на сайт

Имя:
Пароль:

· Забыли пароль?
logo
Портал Форум
Регистрация Вход


new_topic  reply_topic

  (Eurodance) Masterboy - Generation Of Love (Limited Edition) 1995, FLAC (image + .cue)

pic
Год выпуска: 1995
Страна: Германия
Жанр: Eurodance
Номер #: 579 585-2
Продолжительность: ~ 20 минут

Тип издания: сингл
Аудио кодек: FLAC
Тип рипа: (image + .cue)
Битрейт аудио: lossless


Трэклист:

01. Generation Of Love (Ipanema Maxi Version)
02. Generation Of Love (Mondo Maxi Version)
03. Masterboy Mega Mix (Maxi Cut)

Код:

Exact Audio Copy V0.99 prebeta 5 from 4. May 2009

Отчёт EAC об извлечении, выполненном 22. апреля 2011, 16:32

Masterboy / Generation Of Love (Limited Edition)

Дисковод: PLEXTOR DVDR   PX-800A   Adapter: 0  ID: 0

Режим чтения                 : Достоверность
Использование точного потока : Да
Отключение кэша аудио        : Да
Использование указателей C2  : Нет

Коррекция смещения при чтении                     : 48
Способность читать области Lead-in и Lead-out     : Нет
Заполнение пропущенных сэмплов тишиной            : Да
Удаление блоков с тишиной в начале и конце        : Нет
При вычислениях CRC использовались нулевые сэмплы : Да
Интерфейс                                         : Встроенный Win32-интерфейс для Win NT/2000

Выходной формат : Внутренние WAV-операции
Формат сэмплов  : 44.100 Гц; 16 бит; стерео

TOC извлечённого CD

     Трек |   Старт  | Длительность | Начальный сектор | Конечный сектор
    ---------------------------------------------------------------------
       1  |  0:00.32 |    5:51.43   |          32      |      26399     
       2  |  5:52.00 |    5:52.32   |       26400      |      52831     
       3  | 11:44.32 |    7:29.23   |       52832      |      86529     

Характеристики диапазона извлечения и сообщения об ошибках

Выбранный диапазон

     Имя файла C:\Temp\Образы\Masterboy - Generation Of Love (Limited Edition).wav

     Пиковый уровень 98.8 %
     Качество диапазона 100.0 %
     CRC теста A69EA11A
     CRC копии A69EA11A
     Копирование... OK

Ошибок не произошло

 
AccurateRip: сводка
 
Трек  1  нет в базе данных
Трек  2  нет в базе данных
Трек  3  нет в базе данных
 
Ни одного трека нет в базе AccurateRip

Конец отчёта

Страница 1 из 1

new_topic  reply_topic

Текущее время: 23-Окт 15:40
Часовой пояс: GMT + 4

m Сделано с любовью PR-CY.ru Каталог webplus.info