Вход на сайт

Имя:
Пароль:

· Забыли пароль?
logo
Портал Форум
Регистрация Вход


new_topic  reply_topic

  (Hip-Hop) The Rapsody feat. LL Cool J - Dear Mallika CDM 1998, FLAC (image + .cue)

pic
Год выпуска: 1998
Страна: Europe
Жанр: Hip-Hop
Номер #: 568 459-2
Продолжительность: ~16min

Тип издания: сингл
Аудио кодек: FLAC
Тип рипа: (image + .cue)
Битрейт аудио: lossless

Трэклист:

1 Dear Mallika 3:42
2 Dear Mallika (Ries Radio Mix) 3:52
3 Dear Mallika (D.O.N.S. Radio Mix) 3:44
4 Dear Mallika (Album Version) 4:06

Код:

Exact Audio Copy V0.99 prebeta 5 from 4. May 2009

Отчёт EAC об извлечении, выполненном 13. марта 2011, 15:06

The Rapsody feat. LL Cool J / Dear Mallika CDM

Дисковод: Optiarc DVD RW AD-7170A   Adapter: 2  ID: 0

Режим чтения                 : Достоверность
Использование точного потока : Да
Отключение кэша аудио        : Да
Использование указателей C2  : Нет

Коррекция смещения при чтении                     : 48
Способность читать области Lead-in и Lead-out     : Нет
Заполнение пропущенных сэмплов тишиной            : Да
Удаление блоков с тишиной в начале и конце        : Нет
При вычислениях CRC использовались нулевые сэмплы : Да
Интерфейс                                         : Установленный внешний ASPI-интерфейс

Выходной формат : Внутренние WAV-операции
Формат сэмплов  : 44.100 Гц; 16 бит; стерео

TOC извлечённого CD

     Трек |   Старт  | Длительность | Начальный сектор | Конечный сектор
    ---------------------------------------------------------------------
       1  |  0:00.00 |    3:42.57   |           0      |      16706     
       2  |  3:42.57 |    3:52.15   |       16707      |      34121     
       3  |  7:34.72 |    3:44.33   |       34122      |      50954     
       4  | 11:19.30 |    4:06.20   |       50955      |      69424     

Характеристики диапазона извлечения и сообщения об ошибках

Выбранный диапазон

     Имя файла G:\SeaMan\The Rapsody feat. LL Cool J - Dear Mallika CDM.wav

     Пиковый уровень 99.9 %
     Качество диапазона 100.0 %
     CRC теста FF4804BD
     CRC копии FF4804BD
     Копирование... OK

Ошибок не произошло

 
AccurateRip: сводка
 
Трек  1  точное извлечение (доверие 6)  [380F8FCE]
Трек  2  точное извлечение (доверие 5)  [A173908D]
Трек  3  точное извлечение (доверие 5)  [B88CBD3C]
Трек  4  точное извлечение (доверие 4)  [3F2F667F]
 
Все треки извлечены точно

Конец отчёта
o god wonderful
Всем привет! Есть у кого-нибудь этот сингл?

Страница 1 из 1

new_topic  reply_topic

Текущее время: 23-Окт 14:30
Часовой пояс: GMT + 4

m Сделано с любовью PR-CY.ru Каталог webplus.info