Вход на сайт

Имя:
Пароль:

· Забыли пароль?
logo
Портал Форум
Регистрация Вход


new_topic  reply_topic

  (Pop) Various - Hot Hit 2 2010, FLAC (image + .cue)

pic
Год выпуска: 2010
Страна: Россия
Жанр: Pop
Номер #: CDLREC 5602010
Продолжительность: 01:19:00

Тип издания: сборник
Аудио кодек: FLAC
Тип рипа: (image + .cue)
Битрейт аудио: lossless


Трэклист:

01. 10 Minutes (Club Version by Play & Win) – Inna
02. Make Me Shiver – Akcent
03. Boro Na Sou Po – Alessia
04. Vive Le Swing (Rivaz Club Edit) – In-Grid
05. Top Of The World – Sonny Flame
06. Roses On Fire – Pink Room feat. Antonia
07. Too Late to Cry – Vivien O`Hara feat. Adrian Sana
08. Morena – Tom Boxer feat. Antonia
09. Be Free – Radio Killer
10. Sexy Love – Residence DeeJays feat. Friscco
11. Crazy Love – Corina
12. Sen De Bizdensin – Mansur Ark
13. Murder – Connect-R
14. You`re A Place In My Heart – Roller Sis feat. Adrian Sana
15. One – Jay Ko feat. Anya
16. Feel – Dj Rynno feat. Sylvia
17. Come Fly Away – Benny Benassi feat. Channing
18. That's My Name 2010 – Akcent feat. Lora
19. Legal – Class
20. I Need You For Christhmas – Inna

Код:

Exact Audio Copy V0.99 prebeta 5 from 4. May 2009

Отчёт EAC об извлечении, выполненном 18. марта 2011, 14:57

Various / Hot Hit 2

Дисковод: HL-DT-STDVDRAM GSA-T50N   Adapter: 2  ID: 0

Режим чтения                 : Достоверность
Использование точного потока : Да
Отключение кэша аудио        : Да
Использование указателей C2  : Нет

Коррекция смещения при чтении                     : 667
Способность читать области Lead-in и Lead-out     : Нет
Заполнение пропущенных сэмплов тишиной            : Да
Удаление блоков с тишиной в начале и конце        : Нет
При вычислениях CRC использовались нулевые сэмплы : Да
Интерфейс                                         : Встроенный Win32-интерфейс для Win NT/2000

Выходной формат : Внутренние WAV-операции
Формат сэмплов  : 44.100 Гц; 16 бит; стерео

TOC извлечённого CD

     Трек |   Старт  | Длительность | Начальный сектор | Конечный сектор
    ---------------------------------------------------------------------
       1  |  0:00.00 |    4:09.17   |           0      |      18691     
       2  |  4:09.17 |    3:17.25   |       18692      |      33491     
       3  |  7:26.42 |    3:39.23   |       33492      |      49939     
       4  | 11:05.65 |    5:12.24   |       49940      |      73363     
       5  | 16:18.14 |    3:32.07   |       73364      |      89270     
       6  | 19:50.21 |    3:45.11   |       89271      |     106156     
       7  | 23:35.32 |    4:24.28   |      106157      |     125984     
       8  | 27:59.60 |    3:35.56   |      125985      |     142165     
       9  | 31:35.41 |    3:12.18   |      142166      |     156583     
      10  | 34:47.59 |    3:18.26   |      156584      |     171459     
      11  | 38:06.10 |    3:41.11   |      171460      |     188045     
      12  | 41:47.21 |    4:11.37   |      188046      |     206907     
      13  | 45:58.58 |    6:27.48   |      206908      |     235980     
      14  | 52:26.31 |    3:42.14   |      235981      |     252644     
      15  | 56:08.45 |    3:59.23   |      252645      |     270592     
      16  | 60:07.68 |    4:09.68   |      270593      |     289335     
      17  | 64:17.61 |    4:56.58   |      289336      |     311593     
      18  | 69:14.44 |    4:06.16   |      311594      |     330059     
      19  | 73:20.60 |    3:23.15   |      330060      |     345299     
      20  | 76:44.00 |    2:44.09   |      345300      |     357608     

Характеристики диапазона извлечения и сообщения об ошибках

Выбранный диапазон

     Имя файла C:\Users\Alex\Desktop\Various - Hot Hit 2.wav

     Пиковый уровень 100.0 %
     Качество диапазона 99.9 %
     CRC теста 8B7F36E4
     CRC копии 8B7F36E4
     Копирование... OK

Ошибок не произошло

 
AccurateRip: сводка
 
Трек  1  нет в базе данных
Трек  2  нет в базе данных
Трек  3  нет в базе данных
Трек  4  нет в базе данных
Трек  5  нет в базе данных
Трек  6  нет в базе данных
Трек  7  нет в базе данных
Трек  8  нет в базе данных
Трек  9  нет в базе данных
Трек 10  нет в базе данных
Трек 11  нет в базе данных
Трек 12  нет в базе данных
Трек 13  нет в базе данных
Трек 14  нет в базе данных
Трек 15  нет в базе данных
Трек 16  нет в базе данных
Трек 17  нет в базе данных
Трек 18  нет в базе данных
Трек 19  нет в базе данных
Трек 20  нет в базе данных
 
Ни одного трека нет в базе AccurateRip

Конец отчёта
Спасибо за релиз!

Как альбом?
Альбом классный, зажигательный
Обложка от Inna полностью содрана
Да, я тоже это заметил 7, 12, 16 треки Audiochecker показывает, что MPEG 95%, но звучание радует уши.
А как скачать то? Я что-то не понял еще.

ValeraTerechenko писал(а):

А как скачать то? Я что-то не понял еще.
оплатить рип и он будет у тебя на винте.
romanian hits

Страница 1 из 1

new_topic  reply_topic

Текущее время: 25-Янв 11:52
Часовой пояс: GMT + 4

m Сделано с любовью PR-CY.ru Каталог webplus.info