Вход на сайт

Имя:
Пароль:

· Забыли пароль?
logo
Портал Форум
Регистрация Вход


new_topic  reply_topic

  (Pop / Dance) Aneela - Jaande 2005, FLAC (image + .cue)

pic
Год выпуска: 2005
Страна: Германия
Жанр: Pop / Dance
Номер #: 987 387-9
Продолжительность: ~ 26 минут

Тип издания: сингл
Аудио кодек: FLAC
Тип рипа: (image + .cue)
Битрейт аудио: lossless


Трэклист:

01. Jaande (Radio Edit)
02. Jaande (Extended Mix)
03. Jaande (Peter Clarke Remix)
04. Jaande (2-4 Grooves Remix)
05. Jaande (Groove Rebels Remix)

Код:

Exact Audio Copy V0.99 prebeta 5 from 4. May 2009

Отчёт EAC об извлечении, выполненном 15. апреля 2011, 20:30

Aneela / Jaande

Дисковод: PLEXTOR DVDR   PX-800A   Adapter: 0  ID: 0

Режим чтения                 : Достоверность
Использование точного потока : Да
Отключение кэша аудио        : Да
Использование указателей C2  : Нет

Коррекция смещения при чтении                     : 48
Способность читать области Lead-in и Lead-out     : Нет
Заполнение пропущенных сэмплов тишиной            : Да
Удаление блоков с тишиной в начале и конце        : Нет
При вычислениях CRC использовались нулевые сэмплы : Да
Интерфейс                                         : Встроенный Win32-интерфейс для Win NT/2000

Выходной формат : Внутренние WAV-операции
Формат сэмплов  : 44.100 Гц; 16 бит; стерео

TOC извлечённого CD

     Трек |   Старт  | Длительность | Начальный сектор | Конечный сектор
    ---------------------------------------------------------------------
       1  |  0:00.00 |    3:06.74   |           0      |      14023     
       2  |  3:06.74 |    4:30.19   |       14024      |      34292     
       3  |  7:37.18 |    4:45.71   |       34293      |      55738     
       4  | 12:23.14 |    6:49.04   |       55739      |      86417     
       5  | 19:12.18 |    6:39.67   |       86418      |     116409     

Характеристики диапазона извлечения и сообщения об ошибках

Выбранный диапазон

     Имя файла C:\Temp\Образы\Aneela - Jaande.wav

     Пиковый уровень 98.8 %
     Качество диапазона 100.0 %
     CRC теста 10B896BD
     CRC копии 10B896BD
     Копирование... OK

Ошибок не произошло

 
AccurateRip: сводка
 
Трек  1  нет в базе данных
Трек  2  нет в базе данных
Трек  3  нет в базе данных
Трек  4  нет в базе данных
Трек  5  нет в базе данных
 
Ни одного трека нет в базе AccurateRip

Конец отчёта
dimka007 Как я могу скачать знакомств?
надо раздать

dimka007 писал(а):

(Pop / Dance) Aneela - Jaande 2005, FLAC (image + .cue)

Страница 1 из 1

new_topic  reply_topic

Текущее время: 29-Ноя 20:32
Часовой пояс: GMT + 4

m Сделано с любовью PR-CY.ru Каталог webplus.info