Вход на сайт

Имя:
Пароль:

· Забыли пароль?
logo
Портал Форум
Регистрация Вход


new_topic  reply_topic

  (Eurodance) Masterboy – Feeling Alright 1993, FLAC (image + .cue)

pic
Год выпуска: 1993
Страна: Германия
Жанр: Eurodance
Номер #: 519 514-2
Продолжительность: ~ 58 минут

Тип издания: альбом
Аудио кодек: FLAC
Тип рипа: (image + .cue)
Битрейт аудио: lossless


Трэклист:

01. Fall In Trance
02. M.B.O.Y. ( Give It Up )
03. Feel My Life
04. Hey, Hey, Hey ( You Around Me )
05. Where Are You Now Boy
06. Reach Out - I'll Be There
07. Fall In Trance ( Organ Mix )
08. Come On Come On (I Feel Inside Me )
09. Cause We Do It Again ( '93 Version )
10. Masterboy Theme ( The Second )
11. Welcome To The Future Of Paradise
12. Fall In Trance ( Remixed By Bass Bumpers )
13. Everybody Needs Somebody

Код:

Exact Audio Copy V0.99 prebeta 5 from 4. May 2009

Отчёт EAC об извлечении, выполненном 22. апреля 2011, 22:15

Masterboy / Feeling Alright

Дисковод: PLEXTOR DVDR   PX-800A   Adapter: 0  ID: 0

Режим чтения                 : Достоверность
Использование точного потока : Да
Отключение кэша аудио        : Да
Использование указателей C2  : Нет

Коррекция смещения при чтении                     : 48
Способность читать области Lead-in и Lead-out     : Нет
Заполнение пропущенных сэмплов тишиной            : Да
Удаление блоков с тишиной в начале и конце        : Нет
При вычислениях CRC использовались нулевые сэмплы : Да
Интерфейс                                         : Встроенный Win32-интерфейс для Win NT/2000

Выходной формат : Внутренние WAV-операции
Формат сэмплов  : 44.100 Гц; 16 бит; стерео

TOC извлечённого CD

     Трек |   Старт  | Длительность | Начальный сектор | Конечный сектор
    ---------------------------------------------------------------------
       1  |  0:00.32 |    3:35.25   |          32      |      16181     
       2  |  3:35.57 |    3:37.25   |       16182      |      32481     
       3  |  7:13.07 |    4:25.40   |       32482      |      52396     
       4  | 11:38.47 |    4:26.10   |       52397      |      72356     
       5  | 16:04.57 |    3:45.40   |       72357      |      89271     
       6  | 19:50.22 |    3:31.70   |       89272      |     105166     
       7  | 23:22.17 |    6:25.30   |      105167      |     134071     
       8  | 29:47.47 |    4:29.30   |      134072      |     154276     
       9  | 34:17.02 |    4:13.65   |      154277      |     173316     
      10  | 38:30.67 |    5:27.50   |      173317      |     197891     
      11  | 43:58.42 |    3:58.25   |      197892      |     215766     
      12  | 47:56.67 |    5:53.15   |      215767      |     242256     
      13  | 53:50.07 |    3:55.25   |      242257      |     259906     

Характеристики диапазона извлечения и сообщения об ошибках

Выбранный диапазон

     Имя файла C:\Temp\Образы\Masterboy - Feeling Alright.wav

     Пиковый уровень 97.7 %
     Качество диапазона 99.9 %
     CRC теста 4E3ACE35
     CRC копии 4E3ACE35
     Копирование... OK

Ошибок не произошло

 
AccurateRip: сводка
 
Трек  1  точное извлечение (доверие 11)  [78D0D003]
Трек  2  точное извлечение (доверие 11)  [D5FA65DA]
Трек  3  точное извлечение (доверие 11)  [877DDFFE]
Трек  4  точное извлечение (доверие 11)  [B970B09A]
Трек  5  точное извлечение (доверие 11)  [934A061E]
Трек  6  точное извлечение (доверие 11)  [06161A0D]
Трек  7  точное извлечение (доверие 11)  [7B85C3A5]
Трек  8  точное извлечение (доверие 11)  [3620DDE2]
Трек  9  точное извлечение (доверие 11)  [85F3D07F]
Трек 10  точное извлечение (доверие 11)  [F5FE3F66]
Трек 11  точное извлечение (доверие 11)  [8B0957A6]
Трек 12  точное извлечение (доверие 11)  [BFA18D8D]
Трек 13  точное извлечение (доверие 11)  [AE380CC8]
 
Все треки извлечены точно

Конец отчёта

Страница 1 из 1

new_topic  reply_topic

Текущее время: 23-Сен 01:32
Часовой пояс: GMT + 4

m Сделано с любовью PR-CY.ru Каталог webplus.info