Вход на сайт

Имя:
Пароль:

· Забыли пароль?
logo
Портал Форум
Регистрация Вход


new_topic  reply_topic

  (Eurodance) Masterboy – Noche Del Amor 1992, FLAC (image + .cue)

pic
Год выпуска: 1992
Страна: Германия
Жанр: Eurodance
Номер #: 863 073-2
Продолжительность: ~ 20 минут

Тип издания: сингл
Аудио кодек: FLAC
Тип рипа: (image + .cue)
Битрейт аудио: lossless


Трэклист:

01. Noche Del Amor (Single-Version)
02. Noche Del Amor (Banana-Mix)
03. Summer Night (Rap-Version)
04. Noche Del Amor (Live-Version)

Код:

Exact Audio Copy V0.99 prebeta 5 from 4. May 2009

Отчёт EAC об извлечении, выполненном 23. апреля 2011, 22:24

Masterboy / Noche Del Amor

Дисковод: PLEXTOR DVDR   PX-800A   Adapter: 0  ID: 0

Режим чтения                 : Достоверность
Использование точного потока : Да
Отключение кэша аудио        : Да
Использование указателей C2  : Нет

Коррекция смещения при чтении                     : 48
Способность читать области Lead-in и Lead-out     : Нет
Заполнение пропущенных сэмплов тишиной            : Да
Удаление блоков с тишиной в начале и конце        : Нет
При вычислениях CRC использовались нулевые сэмплы : Да
Интерфейс                                         : Встроенный Win32-интерфейс для Win NT/2000

Выходной формат : Внутренние WAV-операции
Формат сэмплов  : 44.100 Гц; 16 бит; стерео

TOC извлечённого CD

     Трек |   Старт  | Длительность | Начальный сектор | Конечный сектор
    ---------------------------------------------------------------------
       1  |  0:00.33 |    3:37.60   |          33      |      16367     
       2  |  3:38.18 |    6:00.12   |       16368      |      43379     
       3  |  9:38.30 |    6:00.13   |       43380      |      70392     
       4  | 15:38.43 |    3:42.47   |       70393      |      87089     

Характеристики диапазона извлечения и сообщения об ошибках

Выбранный диапазон

     Имя файла C:\Temp\Образы\Masterboy - Noche Del Amor.wav

     Пиковый уровень 100.0 %
     Качество диапазона 100.0 %
     CRC теста BAD650E5
     CRC копии BAD650E5
     Копирование... OK

Ошибок не произошло

 
AccurateRip: сводка
 
Трек  1  нет в базе данных
Трек  2  нет в базе данных
Трек  3  нет в базе данных
Трек  4  нет в базе данных
 
Ни одного трека нет в базе AccurateRip

Конец отчёта

Страница 1 из 1

new_topic  reply_topic

Текущее время: 23-Сен 01:12
Часовой пояс: GMT + 4

m Сделано с любовью PR-CY.ru Каталог webplus.info