Вход на сайт

Имя:
Пароль:

· Забыли пароль?
logo
Портал Форум
Регистрация Вход


new_topic  reply_topic

  (Eurodance) Masterboy – Everybody Needs Somebody 1993, FLAC (image + .cue)

pic
Год выпуска: 1993
Страна: Германия
Жанр: Eurodance
Номер #: 859 267-2
Продолжительность: ~ 21 минута

Тип издания: сингл
Аудио кодек: FLAC
Тип рипа: (image + .cue)
Битрейт аудио: lossless


Трэклист:

01. Everybody Needs Somebody (Single Edit)
02. Everybody Needs Somebody (Up & Down Mix)
03. Everybody Needs Somebody (Italo Mix)
04. Everybody Needs Somebody (Italo Mix Instrumental)


Доп. информация: Спасибо MNP за сингл

Код:

Exact Audio Copy V0.99 prebeta 5 from 4. May 2009

Отчёт EAC об извлечении, выполненном 22. апреля 2011, 20:22

Masterboy / Everybody Needs Somebody

Дисковод: Optiarc DVD RW AD-7170A   Adapter: 2  ID: 0

Режим чтения                 : Достоверность
Использование точного потока : Да
Отключение кэша аудио        : Да
Использование указателей C2  : Нет

Коррекция смещения при чтении                     : 48
Способность читать области Lead-in и Lead-out     : Нет
Заполнение пропущенных сэмплов тишиной            : Да
Удаление блоков с тишиной в начале и конце        : Нет
При вычислениях CRC использовались нулевые сэмплы : Да
Интерфейс                                         : Установленный внешний ASPI-интерфейс

Выходной формат : Внутренние WAV-операции
Формат сэмплов  : 44.100 Гц; 16 бит; стерео

TOC извлечённого CD

     Трек |   Старт  | Длительность | Начальный сектор | Конечный сектор
    ---------------------------------------------------------------------
       1  |  0:00.32 |    3:58.38   |          32      |      17919     
       2  |  3:58.70 |    6:09.25   |       17920      |      45619     
       3  | 10:08.20 |    6:04.37   |       45620      |      72956     
       4  | 16:12.57 |    4:37.25   |       72957      |      93756     

Характеристики диапазона извлечения и сообщения об ошибках

Выбранный диапазон

     Имя файла G:\SeaMan\Masterboy - Everybody Needs Somebody.wav

     Пиковый уровень 91.8 %
     Качество диапазона 100.0 %
     CRC теста 052B0228
     CRC копии 052B0228
     Копирование... OK

Ошибок не произошло

 
AccurateRip: сводка
 
Трек  1  точное извлечение (доверие 7)  [C7E83431]
Трек  2  точное извлечение (доверие 7)  [9AE9CC94]
Трек  3  точное извлечение (доверие 7)  [9DF276D7]
Трек  4  точное извлечение (доверие 7)  [EDE3298A]
 
Все треки извлечены точно

Конец отчёта

Страница 1 из 1

new_topic  reply_topic

Текущее время: 23-Сен 00:42
Часовой пояс: GMT + 4

m Сделано с любовью PR-CY.ru Каталог webplus.info