Вход на сайт

Имя:
Пароль:

· Забыли пароль?
logo
Портал Форум
Регистрация Вход


new_topic  reply_topic

  (Eurodance) Masterboy – Feel The Heat Of The Night 1994, FLAC (image + .cue)

pic
Год выпуска: 1994
Страна: Германия
Жанр: Eurodance
Номер #: 853235-2
Продолжительность: ~ 17 минут

Тип издания: сингл
Аудио кодек: FLAC
Тип рипа: (image + .cue)
Битрейт аудио: lossless


Трэклист:

01. Feel The Heat Of The Night (Radio Edit)
02. Feel The Heat Of The Night (Free & Independent Mix)
03. Feel The Heat Of The Night (Sunshine Mix)

Код:

Exact Audio Copy V0.99 prebeta 5 from 4. May 2009

Отчёт EAC об извлечении, выполненном 22. апреля 2011, 15:30

Masterboy / Feel The Heat Of The Night

Дисковод: PLEXTOR DVDR   PX-800A   Adapter: 0  ID: 0

Режим чтения                 : Достоверность
Использование точного потока : Да
Отключение кэша аудио        : Да
Использование указателей C2  : Нет

Коррекция смещения при чтении                     : 48
Способность читать области Lead-in и Lead-out     : Нет
Заполнение пропущенных сэмплов тишиной            : Да
Удаление блоков с тишиной в начале и конце        : Нет
При вычислениях CRC использовались нулевые сэмплы : Да
Интерфейс                                         : Встроенный Win32-интерфейс для Win NT/2000

Выходной формат : Внутренние WAV-операции
Формат сэмплов  : 44.100 Гц; 16 бит; стерео

TOC извлечённого CD

     Трек |   Старт  | Длительность | Начальный сектор | Конечный сектор
    ---------------------------------------------------------------------
       1  |  0:00.32 |    3:41.63   |          32      |      16669     
       2  |  3:42.20 |    6:44.20   |       16670      |      46989     
       3  | 10:26.40 |    6:06.30   |       46990      |      74469     

Характеристики диапазона извлечения и сообщения об ошибках

Выбранный диапазон

     Имя файла C:\Temp\Образы\Masterboy - Feel The Heat Of The Night.wav

     Пиковый уровень 98.6 %
     Качество диапазона 100.0 %
     CRC теста 1E304917
     CRC копии 1E304917
     Копирование... OK

Ошибок не произошло

 
AccurateRip: сводка
 
Трек  1  точное извлечение (доверие 13)  [45DE63D0]
Трек  2  точное извлечение (доверие 14)  [B6A3776B]
Трек  3  точное извлечение (доверие 13)  [42377E59]
 
Все треки извлечены точно

Конец отчёта

Страница 1 из 1

new_topic  reply_topic

Текущее время: 23-Сен 01:04
Часовой пояс: GMT + 4

m Сделано с любовью PR-CY.ru Каталог webplus.info