Вход на сайт

Имя:
Пароль:

· Забыли пароль?
logo
Портал Форум
Регистрация Вход


new_topic  reply_topic

  (Eurodance) Masterboy – Feel The Heat Of The Night (Re-Re-Mix) 1994, FLAC (image + .cue)

pic
Год выпуска: 1994
Страна: Германия
Жанр: Eurodance
Номер #: 853 813-2
Продолжительность: ~ 17 минут

Тип издания: сингл
Аудио кодек: FLAC
Тип рипа: (image + .cue)
Битрейт аудио: lossless


Трэклист:

01. Feel The Heat Of The Night (Unplugged)
02. Feel The Heat Of The Night (Voodoo Mix)
03. Masterboy Mega Mix
a. Dance To The Beat
b. Shake It Up And Dance
c. Everybody Needs Somebody
d. I Got To Give It Up

Код:

Exact Audio Copy V0.99 prebeta 5 from 4. May 2009

Отчёт EAC об извлечении, выполненном 22. апреля 2011, 15:53

Masterboy / Feel The Heat Of The Night (Re-Re-Mix)

Дисковод: PLEXTOR DVDR   PX-800A   Adapter: 0  ID: 0

Режим чтения                 : Достоверность
Использование точного потока : Да
Отключение кэша аудио        : Да
Использование указателей C2  : Нет

Коррекция смещения при чтении                     : 48
Способность читать области Lead-in и Lead-out     : Нет
Заполнение пропущенных сэмплов тишиной            : Да
Удаление блоков с тишиной в начале и конце        : Нет
При вычислениях CRC использовались нулевые сэмплы : Да
Интерфейс                                         : Встроенный Win32-интерфейс для Win NT/2000

Выходной формат : Внутренние WAV-операции
Формат сэмплов  : 44.100 Гц; 16 бит; стерео

TOC извлечённого CD

     Трек |   Старт  | Длительность | Начальный сектор | Конечный сектор
    ---------------------------------------------------------------------
       1  |  0:00.33 |    3:01.27   |          33      |      13634     
       2  |  3:01.60 |    6:02.03   |       13635      |      40787     
       3  |  9:03.63 |    7:39.65   |       40788      |      75277     

Характеристики диапазона извлечения и сообщения об ошибках

Выбранный диапазон

     Имя файла C:\Temp\Образы\Masterboy - Feel The Heat Of The Night (Re-Re-Mix).wav

     Пиковый уровень 100.0 %
     Качество диапазона 100.0 %
     CRC теста 67A41CA7
     CRC копии 67A41CA7
     Копирование... OK

Ошибок не произошло

 
AccurateRip: сводка
 
Трек  1  нет в базе данных
Трек  2  нет в базе данных
Трек  3  точное извлечение (доверие 1)  [C22D77F7]
 
 1 трек(и) скопированы точно
 2 трек(и) не содержатся в базе AccurateRip

Некоторые треки не прошли проверку на точность

Конец отчёта

Страница 1 из 1

new_topic  reply_topic

Текущее время: 22-Сен 23:50
Часовой пояс: GMT + 4

m Сделано с любовью PR-CY.ru Каталог webplus.info