Вход на сайт

Имя:
Пароль:

· Забыли пароль?
logo
Портал Форум
Регистрация Вход


new_topic  reply_topic

  (Eurodance) Masterboy – I Got To Give It Up 1994, FLAC (image + .cue)

pic
Год выпуска: 1994
Страна: Германия
Жанр: Eurodance
Номер #: 855 367-2
Продолжительность: ~ 15 минут

Тип издания: сингл
Аудио кодек: FLAC
Тип рипа: (image + .cue)
Битрейт аудио: lossless


Трэклист:

01. I Got To Give It Up (Single Edit)
02. I Got To Give It Up (Get Away Mix)
03. I Got To Give It Up (Italo Mix)

Код:

Exact Audio Copy V0.99 prebeta 5 from 4. May 2009

Отчёт EAC об извлечении, выполненном 22. апреля 2011, 15:03

Masterboy / I Got To Give It Up

Дисковод: PLEXTOR DVDR   PX-800A   Adapter: 0  ID: 0

Режим чтения                 : Достоверность
Использование точного потока : Да
Отключение кэша аудио        : Да
Использование указателей C2  : Нет

Коррекция смещения при чтении                     : 48
Способность читать области Lead-in и Lead-out     : Нет
Заполнение пропущенных сэмплов тишиной            : Да
Удаление блоков с тишиной в начале и конце        : Нет
При вычислениях CRC использовались нулевые сэмплы : Да
Интерфейс                                         : Встроенный Win32-интерфейс для Win NT/2000

Выходной формат : Внутренние WAV-операции
Формат сэмплов  : 44.100 Гц; 16 бит; стерео

TOC извлечённого CD

     Трек |   Старт  | Длительность | Начальный сектор | Конечный сектор
    ---------------------------------------------------------------------
       1  |  0:00.32 |    3:35.00   |          32      |      16156     
       2  |  3:35.32 |    6:01.60   |       16157      |      43291     
       3  |  9:37.17 |    5:24.43   |       43292      |      67634     

Характеристики диапазона извлечения и сообщения об ошибках

Выбранный диапазон

     Имя файла C:\Temp\Образы\Masterboy - I Got To Give It Up.wav

     Пиковый уровень 98.8 %
     Качество диапазона 100.0 %
     CRC теста E3CC98BC
     CRC копии E3CC98BC
     Копирование... OK

Ошибок не произошло

 
AccurateRip: сводка
 
Трек  1  точное извлечение (доверие 19)  [3DC84B46]
Трек  2  точное извлечение (доверие 20)  [EDDFB090]
Трек  3  точное извлечение (доверие 18)  [D52E2A6F]
 
Все треки извлечены точно

Конец отчёта

Страница 1 из 1

new_topic  reply_topic

Текущее время: 23-Окт 16:04
Часовой пояс: GMT + 4

m Сделано с любовью PR-CY.ru Каталог webplus.info