Вход на сайт

Имя:
Пароль:

· Забыли пароль?
logo
Портал Форум
Регистрация Вход


new_topic  reply_topic

  (Eurodance) Masterboy – I Got To Give It Up (Remixes) 1994, FLAC (image + .cue)

pic
Год выпуска: 1994
Страна: Германия
Жанр: Eurodance
Номер #: 855 571-2
Продолжительность: ~ 18 минут

Тип издания: сингл
Аудио кодек: FLAC
Тип рипа: (image + .cue)
Битрейт аудио: lossless


Трэклист:

01. I Got To Give It Up (On And On Mix)
02. I Got To Give It Up (Guitana Mix)
03. I Got To Give It Up (Instrumental Mix)

Код:

Exact Audio Copy V0.99 prebeta 5 from 4. May 2009

Отчёт EAC об извлечении, выполненном 22. апреля 2011, 15:14

Masterboy / I Got To Give It Up (Remixes)

Дисковод: PLEXTOR DVDR   PX-800A   Adapter: 0  ID: 0

Режим чтения                 : Достоверность
Использование точного потока : Да
Отключение кэша аудио        : Да
Использование указателей C2  : Нет

Коррекция смещения при чтении                     : 48
Способность читать области Lead-in и Lead-out     : Нет
Заполнение пропущенных сэмплов тишиной            : Да
Удаление блоков с тишиной в начале и конце        : Нет
При вычислениях CRC использовались нулевые сэмплы : Да
Интерфейс                                         : Встроенный Win32-интерфейс для Win NT/2000

Выходной формат : Внутренние WAV-операции
Формат сэмплов  : 44.100 Гц; 16 бит; стерео

TOC извлечённого CD

     Трек |   Старт  | Длительность | Начальный сектор | Конечный сектор
    ---------------------------------------------------------------------
       1  |  0:00.33 |    6:04.50   |          33      |      27382     
       2  |  6:05.08 |    5:45.70   |       27383      |      53327     
       3  | 11:51.03 |    6:02.05   |       53328      |      80482     

Характеристики диапазона извлечения и сообщения об ошибках

Выбранный диапазон

     Имя файла C:\Temp\Образы\Masterboy - I Got To Give It Up (Remixes).wav

     Пиковый уровень 98.8 %
     Качество диапазона 100.0 %
     CRC теста 5D372AED
     CRC копии 5D372AED
     Копирование... OK

Ошибок не произошло

 
AccurateRip: сводка
 
Трек  1  точное извлечение (доверие 5)  [FAC40F9B]
Трек  2  точное извлечение (доверие 5)  [6C5B3845]
Трек  3  точное извлечение (доверие 5)  [3B146EE2]
 
Все треки извлечены точно

Конец отчёта

Страница 1 из 1

new_topic  reply_topic

Текущее время: 23-Сен 00:52
Часовой пояс: GMT + 4

m Сделано с любовью PR-CY.ru Каталог webplus.info