Вход на сайт

Имя:
Пароль:

· Забыли пароль?
logo
Портал Форум
Регистрация Вход


new_topic  reply_topic

  (Eurodance) Masterboy – Is This The Love (Remix) 1994, FLAC (image + .cue)

pic
Год выпуска: 1994
Страна: Германия
Жанр: Eurodance
Номер #: 851 251-2
Продолжительность: ~ 25 минут

Тип издания: сингл
Аудио кодек: FLAC
Тип рипа: (image + .cue)
Битрейт аудио: lossless


Трэклист:

01. Is This The Love (Fun Club Mix)
02. Is This The Love (Acid Mix)
03. Is This The Love (TNT Party Zone Master Mix)
04. Is This The Love (Alternative Mix)

Код:

Exact Audio Copy V0.99 prebeta 5 from 4. May 2009

Отчёт EAC об извлечении, выполненном 22. апреля 2011, 14:20

Masterboy / Is This The Love (Remix)

Дисковод: PLEXTOR DVDR   PX-800A   Adapter: 0  ID: 0

Режим чтения                 : Достоверность
Использование точного потока : Да
Отключение кэша аудио        : Да
Использование указателей C2  : Нет

Коррекция смещения при чтении                     : 48
Способность читать области Lead-in и Lead-out     : Нет
Заполнение пропущенных сэмплов тишиной            : Да
Удаление блоков с тишиной в начале и конце        : Нет
При вычислениях CRC использовались нулевые сэмплы : Да
Интерфейс                                         : Встроенный Win32-интерфейс для Win NT/2000

Выходной формат : Внутренние WAV-операции
Формат сэмплов  : 44.100 Гц; 16 бит; стерео

TOC извлечённого CD

     Трек |   Старт  | Длительность | Начальный сектор | Конечный сектор
    ---------------------------------------------------------------------
       1  |  0:00.33 |    6:13.25   |          33      |      28032     
       2  |  6:13.58 |    5:52.00   |       28033      |      54432     
       3  | 12:05.58 |    6:34.00   |       54433      |      83982     
       4  | 18:39.58 |    5:34.37   |       83983      |     109069     

Характеристики диапазона извлечения и сообщения об ошибках

Выбранный диапазон

     Имя файла C:\Temp\Образы\Masterboy - Is This The Love (Remix).wav

     Пиковый уровень 98.0 %
     Качество диапазона 100.0 %
     CRC теста 51708FFC
     CRC копии 51708FFC
     Копирование... OK

Ошибок не произошло

 
AccurateRip: сводка
 
Трек  1  точное извлечение (доверие 2)  [AC952294]
Трек  2  точное извлечение (доверие 2)  [DEF3FE4C]
Трек  3  точное извлечение (доверие 2)  [CC5B1CE4]
Трек  4  точное извлечение (доверие 2)  [E3B54DC0]
 
Все треки извлечены точно

Конец отчёта
Так хочется образ ? Fun Club Mix завораживает.

Страница 1 из 1

new_topic  reply_topic

Текущее время: 23-Сен 00:30
Часовой пояс: GMT + 4

m Сделано с любовью PR-CY.ru Каталог webplus.info