Вход на сайт

Имя:
Пароль:

· Забыли пароль?
logo
Портал Форум
Регистрация Вход


new_topic  reply_topic

  (Eurodance) Masterboy - Generation Of Love (Remix) 1995, FLAC (image + .cue)

pic
Год выпуска: 1995
Страна: Германия
Жанр: Eurodance
Номер #: 579 587-2
Продолжительность: ~ 23 минуты

Тип издания: сингл
Аудио кодек: FLAC
Тип рипа: (image + .cue)
Битрейт аудио: lossless


Трэклист:

01. Generation Of Love (Generated Airplay Mix)
02. Generation Of Love (Generated Mix)
03. Generation Of Love (Robotnico Acid House Mix)
04. Generation Of Love (Fly Away Mix)

Код:

Exact Audio Copy V0.99 prebeta 5 from 4. May 2009

Отчёт EAC об извлечении, выполненном 22. апреля 2011, 16:20

Masterboy / Generation of Love (Remix)

Дисковод: PLEXTOR DVDR   PX-800A   Adapter: 0  ID: 0

Режим чтения                 : Достоверность
Использование точного потока : Да
Отключение кэша аудио        : Да
Использование указателей C2  : Нет

Коррекция смещения при чтении                     : 48
Способность читать области Lead-in и Lead-out     : Нет
Заполнение пропущенных сэмплов тишиной            : Да
Удаление блоков с тишиной в начале и конце        : Нет
При вычислениях CRC использовались нулевые сэмплы : Да
Интерфейс                                         : Встроенный Win32-интерфейс для Win NT/2000

Выходной формат : Внутренние WAV-операции
Формат сэмплов  : 44.100 Гц; 16 бит; стерео

TOC извлечённого CD

     Трек |   Старт  | Длительность | Начальный сектор | Конечный сектор
    ---------------------------------------------------------------------
       1  |  0:00.33 |    4:09.50   |          33      |      18757     
       2  |  4:10.08 |    7:31.12   |       18758      |      52594     
       3  | 11:41.20 |    5:03.38   |       52595      |      75357     
       4  | 16:44.58 |    6:03.50   |       75358      |     102632     

Характеристики диапазона извлечения и сообщения об ошибках

Выбранный диапазон

     Имя файла C:\Temp\Образы\Masterboy - Generation of Love (Remix).wav

     Пиковый уровень 98.6 %
     Качество диапазона 99.9 %
     CRC теста A9C83155
     CRC копии B1C9AFBF
     Копирование... OK

Ошибок не произошло

 
AccurateRip: сводка
 
Трек  1  точное извлечение (доверие 2)  [C0DCBF00]
Трек  2  точное извлечение (доверие 2)  [B58CBD61]
Трек  3  точное извлечение (доверие 2)  [8390F129]
Трек  4  точное извлечение (доверие 2)  [CCA7973C]
 
Все треки извлечены точно

Конец отчёта

Страница 1 из 1

new_topic  reply_topic

Текущее время: 23-Сен 00:48
Часовой пояс: GMT + 4

m Сделано с любовью PR-CY.ru Каталог webplus.info