Вход на сайт

Имя:
Пароль:

· Забыли пароль?
logo
Портал Форум
Регистрация Вход


new_topic  reply_topic

  (Eurodance) Masterboy – Mister Feeling 1996, FLAC (image + .cue)

pic
Год выпуска: 1996
Страна: Германия
Жанр: Eurodance
Номер #: 576 229-2
Продолжительность: ~ 16 минут

Тип издания: сингл
Аудио кодек: FLAC
Тип рипа: (image + .cue)
Битрейт аудио: lossless


Трэклист:

01. Mister Feeling (Radio Edit)
02. Mister Feeling (Summer Holiday Mix)
03. Mister Feeling (Mallorca Mix)

Код:

Exact Audio Copy V0.99 prebeta 5 from 4. May 2009

Отчёт EAC об извлечении, выполненном 22. апреля 2011, 17:57

Masterboy / Mister Feeling

Дисковод: PLEXTOR DVDR   PX-800A   Adapter: 0  ID: 0

Режим чтения                 : Достоверность
Использование точного потока : Да
Отключение кэша аудио        : Да
Использование указателей C2  : Нет

Коррекция смещения при чтении                     : 48
Способность читать области Lead-in и Lead-out     : Нет
Заполнение пропущенных сэмплов тишиной            : Да
Удаление блоков с тишиной в начале и конце        : Нет
При вычислениях CRC использовались нулевые сэмплы : Да
Интерфейс                                         : Встроенный Win32-интерфейс для Win NT/2000

Выходной формат : Внутренние WAV-операции
Формат сэмплов  : 44.100 Гц; 16 бит; стерео

TOC извлечённого CD

     Трек |   Старт  | Длительность | Начальный сектор | Конечный сектор
    ---------------------------------------------------------------------
       1  |  0:00.32 |    3:53.40   |          32      |      17546     
       2  |  3:53.72 |    5:56.40   |       17547      |      44286     
       3  |  9:50.37 |    6:07.23   |       44287      |      71834     

Характеристики диапазона извлечения и сообщения об ошибках

Выбранный диапазон

     Имя файла C:\Temp\Образы\Masterboy - Mister Feeling.wav

     Пиковый уровень 98.3 %
     Качество диапазона 100.0 %
     CRC теста 6EE1CA29
     CRC копии 6EE1CA29
     Копирование... OK

Ошибок не произошло

 
AccurateRip: сводка
 
Трек  1  точное извлечение (доверие 11)  [3038375B]
Трек  2  точное извлечение (доверие 11)  [D74AA6CB]
Трек  3  точное извлечение (доверие 11)  [E178627A]
 
Все треки извлечены точно

Конец отчёта

Страница 1 из 1

new_topic  reply_topic

Текущее время: 23-Сен 01:09
Часовой пояс: GMT + 4

m Сделано с любовью PR-CY.ru Каталог webplus.info