Вход на сайт

Имя:
Пароль:

· Забыли пароль?
logo
Портал Форум
Регистрация Вход


new_topic  reply_topic

  (Eurodance) Masterboy – Show Me Colours 1996, FLAC (image + .cue)

pic
Год выпуска: 1996
Страна: Германия
Жанр: Eurodance
Номер #: 575 791-2
Продолжительность: ~ 16 минут

Тип издания: сингл
Аудио кодек: FLAC
Тип рипа: (image + .cue)
Битрейт аудио: lossless

Трэклист:

01. Show Me Colours (Radio Edit)
02. Show Me Colours (Maxi Mix)
03. Show Me Colours (B-Side Mix)

Код:

Exact Audio Copy V0.99 prebeta 5 from 4. May 2009

Отчёт EAC об извлечении, выполненном 22. апреля 2011, 17:15

Masterboy / Show Me Colours

Дисковод: PLEXTOR DVDR   PX-800A   Adapter: 0  ID: 0

Режим чтения                 : Достоверность
Использование точного потока : Да
Отключение кэша аудио        : Да
Использование указателей C2  : Нет

Коррекция смещения при чтении                     : 48
Способность читать области Lead-in и Lead-out     : Нет
Заполнение пропущенных сэмплов тишиной            : Да
Удаление блоков с тишиной в начале и конце        : Нет
При вычислениях CRC использовались нулевые сэмплы : Да
Интерфейс                                         : Встроенный Win32-интерфейс для Win NT/2000

Выходной формат : Внутренние WAV-операции
Формат сэмплов  : 44.100 Гц; 16 бит; стерео

TOC извлечённого CD

     Трек |   Старт  | Длительность | Начальный сектор | Конечный сектор
    ---------------------------------------------------------------------
       1  |  0:00.00 |    3:35.10   |           0      |      16134     
       2  |  3:35.10 |    6:08.22   |       16135      |      43756     
       3  |  9:43.32 |    6:19.68   |       43757      |      72249     

Характеристики диапазона извлечения и сообщения об ошибках

Выбранный диапазон

     Имя файла C:\Temp\Образы\Masterboy - Show Me Colours.wav

     Пиковый уровень 98.1 %
     Качество диапазона 99.9 %
     CRC теста 4395C539
     CRC копии 4395C539
     Копирование... OK

Ошибок не произошло

 
AccurateRip: сводка
 
Трек  1  точное извлечение (доверие 10)  [5CA2037D]
Трек  2  точное извлечение (доверие 10)  [17B3D78E]
Трек  3  точное извлечение (доверие 10)  [E8BE71AA]
 
Все треки извлечены точно

Конец отчёта

Страница 1 из 1

new_topic  reply_topic

Текущее время: 23-Сен 00:37
Часовой пояс: GMT + 4

m Сделано с любовью PR-CY.ru Каталог webplus.info