Вход на сайт

Имя:
Пароль:

· Забыли пароль?
logo
Портал Форум
Регистрация Вход


new_topic  reply_topic

  (Eurodance) Masterboy – Show Me Colours (The Remixes) 1996, FLAC (image + .cue)

pic
Год выпуска: 1996
Страна: Германия
Жанр: Eurodance
Номер #: 573 031-2
Продолжительность: ~ 23 минуты

Тип издания: сингл
Аудио кодек: FLAC
Тип рипа: (image + .cue)
Битрейт аудио: lossless

Трэклист:

01. Show Me Colours (Good Friends Single Mix)
02. Show Me Colours (Good Friends Instrumental Mix)
03. Show Me Colours (Big Club Mix)
04. Show Me Colours (Good Friends Vocal Mix)

Код:

Exact Audio Copy V0.99 prebeta 5 from 4. May 2009

Отчёт EAC об извлечении, выполненном 22. апреля 2011, 18:09

Masterboy / Show Me Colours (The Remixes)

Дисковод: PLEXTOR DVDR   PX-800A   Adapter: 0  ID: 0

Режим чтения                 : Достоверность
Использование точного потока : Да
Отключение кэша аудио        : Да
Использование указателей C2  : Нет

Коррекция смещения при чтении                     : 48
Способность читать области Lead-in и Lead-out     : Нет
Заполнение пропущенных сэмплов тишиной            : Да
Удаление блоков с тишиной в начале и конце        : Нет
При вычислениях CRC использовались нулевые сэмплы : Да
Интерфейс                                         : Встроенный Win32-интерфейс для Win NT/2000

Выходной формат : Внутренние WAV-операции
Формат сэмплов  : 44.100 Гц; 16 бит; стерео

TOC извлечённого CD

     Трек |   Старт  | Длительность | Начальный сектор | Конечный сектор
    ---------------------------------------------------------------------
       1  |  0:00.32 |    3:51.55   |          32      |      17411     
       2  |  3:52.12 |    6:10.58   |       17412      |      45219     
       3  | 10:02.70 |    6:16.52   |       45220      |      73471     
       4  | 16:19.47 |    6:12.05   |       73472      |     101376     

Характеристики диапазона извлечения и сообщения об ошибках

Выбранный диапазон

     Имя файла C:\Temp\Образы\Masterboy - Show Me Colours (The Remixes).wav

     Пиковый уровень 98.2 %
     Качество диапазона 100.0 %
     CRC теста 3EF5E9D0
     CRC копии 3EF5E9D0
     Копирование... OK

Ошибок не произошло

 
AccurateRip: сводка
 
Трек  1  точное извлечение (доверие 2)  [038D43E0]
Трек  2  точное извлечение (доверие 2)  [D7B7673B]
Трек  3  точное извлечение (доверие 2)  [94D5A899]
Трек  4  точное извлечение (доверие 2)  [F61A703E]
 
Все треки извлечены точно

Конец отчёта

Страница 1 из 1

new_topic  reply_topic

Текущее время: 22-Сен 23:59
Часовой пояс: GMT + 4

m Сделано с любовью PR-CY.ru Каталог webplus.info