Вход на сайт

Имя:
Пароль:

· Забыли пароль?
logo
Портал Форум
Регистрация Вход


new_topic  reply_topic

  (Eurodance) Masterboy – Dancin' Forever 1998, FLAC (image + .cue)

pic
Год выпуска: 1998
Страна: Германия
Жанр: Eurodance
Номер #: 567 557-2
Продолжительность: ~ 19 минут


Тип издания: сингл
Аудио кодек: FLAC
Тип рипа: (image + .cue)
Битрейт аудио: lossless


Трэклист:

01. Dancin' Forever (Radio Edit)
02. Dancin' Forever (Club Mix)
03. Dancin' Forever (Disco Mix)
04. Just For You (Ballad Mix)


Доп. информация: Спасибо MNP за сингл

Код:

Exact Audio Copy V0.99 prebeta 5 from 4. May 2009

Отчёт EAC об извлечении, выполненном 22. апреля 2011, 20:08

Masterboy / Dancin' Forever

Дисковод: Optiarc DVD RW AD-7170A   Adapter: 2  ID: 0

Режим чтения                 : Достоверность
Использование точного потока : Да
Отключение кэша аудио        : Да
Использование указателей C2  : Нет

Коррекция смещения при чтении                     : 48
Способность читать области Lead-in и Lead-out     : Нет
Заполнение пропущенных сэмплов тишиной            : Да
Удаление блоков с тишиной в начале и конце        : Нет
При вычислениях CRC использовались нулевые сэмплы : Да
Интерфейс                                         : Установленный внешний ASPI-интерфейс

Выходной формат : Внутренние WAV-операции
Формат сэмплов  : 44.100 Гц; 16 бит; стерео

TOC извлечённого CD

     Трек |   Старт  | Длительность | Начальный сектор | Конечный сектор
    ---------------------------------------------------------------------
       1  |  0:00.00 |    3:51.40   |           0      |      17364     
       2  |  3:51.40 |    6:22.66   |       17365      |      46080     
       3  | 10:14.31 |    5:09.14   |       46081      |      69269     
       4  | 15:23.45 |    3:24.40   |       69270      |      84609     

Характеристики диапазона извлечения и сообщения об ошибках

Выбранный диапазон

     Имя файла G:\SeaMan\Masterboy - Dancin' Forever.wav

     Пиковый уровень 99.7 %
     Качество диапазона 100.0 %
     CRC теста 2129606A
     CRC копии 2129606A
     Копирование... OK

Ошибок не произошло

 
AccurateRip: сводка
 
Трек  1  точное извлечение (доверие 4)  [8E70AABD]
Трек  2  точное извлечение (доверие 4)  [C56597E4]
Трек  3  точное извлечение (доверие 4)  [77890437]
Трек  4  точное извлечение (доверие 3)  [D3F95BF6]
 
Все треки извлечены точно

Конец отчёта

Страница 1 из 1

new_topic  reply_topic

Текущее время: 23-Сен 01:05
Часовой пояс: GMT + 4

m Сделано с любовью PR-CY.ru Каталог webplus.info