Вход на сайт

Имя:
Пароль:

· Забыли пароль?
logo
Портал Форум
Регистрация Вход


new_topic  reply_topic

  (Euro House) Masterboy – Porque Te Vas 1999, FLAC (image + .cue)

pic
Год выпуска: 1999
Страна: Германия
Жанр: Euro House
Номер #: 563 971-2
Продолжительность: ~ 25 минут

Тип издания: сингл
Аудио кодек: FLAC
Тип рипа: (image + .cue)
Битрейт аудио: lossless


Трэклист:

01. Porque Te Vas (Radio Mix)
02. Porque Te Vas (Summer Mix)
03. Porque Te Vas (D.O.N.S. Remix)
04. Porque Te Vas (Toolbox Radio Edit)
05. Make Me Feel Good

Код:

Exact Audio Copy V0.99 prebeta 5 from 4. May 2009

Отчёт EAC об извлечении, выполненном 22. апреля 2011, 20:02

Masterboy / Porque Te Vas

Дисковод: PLEXTOR DVDR   PX-800A   Adapter: 0  ID: 0

Режим чтения                 : Достоверность
Использование точного потока : Да
Отключение кэша аудио        : Да
Использование указателей C2  : Нет

Коррекция смещения при чтении                     : 48
Способность читать области Lead-in и Lead-out     : Нет
Заполнение пропущенных сэмплов тишиной            : Да
Удаление блоков с тишиной в начале и конце        : Нет
При вычислениях CRC использовались нулевые сэмплы : Да
Интерфейс                                         : Встроенный Win32-интерфейс для Win NT/2000

Выходной формат : Внутренние WAV-операции
Формат сэмплов  : 44.100 Гц; 16 бит; стерео

TOC извлечённого CD

     Трек |   Старт  | Длительность | Начальный сектор | Конечный сектор
    ---------------------------------------------------------------------
       1  |  0:00.00 |    3:26.02   |           0      |      15451     
       2  |  3:26.02 |    4:27.70   |       15452      |      35546     
       3  |  7:53.72 |    7:02.53   |       35547      |      67249     
       4  | 14:56.50 |    3:35.22   |       67250      |      83396     
       5  | 18:31.72 |    5:47.45   |       83397      |     109466     

Характеристики диапазона извлечения и сообщения об ошибках

Выбранный диапазон

     Имя файла C:\Temp\Образы\Masterboy - Porque Te Vas.wav

     Пиковый уровень 98.4 %
     Качество диапазона 100.0 %
     CRC теста 2605B243
     CRC копии 2605B243
     Копирование... OK

Ошибок не произошло

 
AccurateRip: сводка
 
Трек  1  точное извлечение (доверие 9)  [E36BCD27]
Трек  2  точное извлечение (доверие 9)  [A66D8560]
Трек  3  точное извлечение (доверие 9)  [DE7B2C45]
Трек  4  точное извлечение (доверие 9)  [1ABCCBC2]
Трек  5  точное извлечение (доверие 9)  [C4FCC6C3]
 
Все треки извлечены точно

Конец отчёта

Страница 1 из 1

new_topic  reply_topic

Текущее время: 23-Окт 15:05
Часовой пояс: GMT + 4

m Сделано с любовью PR-CY.ru Каталог webplus.info