Вход на сайт

Имя:
Пароль:

· Забыли пароль?
logo
Портал Форум
Регистрация Вход


Статистика раздачи

Размер: 1,44 GB | Зарегистрирован: 10 лет | Торрент скачан: 0 раз
new_topic  reply_topic

  (Pop) Maxi Boom - 4 альбома 2000-2003, FLAC (image + .cue)

Maxi Boom - Мы по дороге едем / Если тебе не спится / Как много неба! / Зараза

Год выпуска: 2000 -2003
Страна: Германия / Россия
Жанр: Pop
Продолжительность: ~ 4 часа

Тип издания: дискография
Аудио кодек: FLAC
Тип рипа: (image + .cue)
Битрейт аудио: lossless


О группе:
Максибум - это первая группа, со времен самой большой репатриации, которая положила начало молодежной эстраде в Израиле.
Им первым удалось сделать то, что могли бы до них сделать многие. Но они оказались целенаправленными, а главное - более решительными, что и привело и продолжает вести их к огромному успеху.

pic
Maxi Boom - Мы по дороге едем 2000

01. Ночь
02. Мы по дороге едем
03. Пацанка
04. От тебя убегу
05. Без тебя
06. Звездная пыль
07. Слёзы не лей
08. Не ходи со мною рядом (Maxi Boom Dance version)
09. Плачет девушка (Maxi Boom Dance Version)
10. Я буду вечно тебя ждать
11. Ночь (Remix)

Код:

Exact Audio Copy V0.99 prebeta 5 from 4. May 2009

Отчёт EAC об извлечении, выполненном 23. апреля 2011, 22:03

Maxi Boom / Мы по дороге едим

Дисковод: HWPEFS  N01M3C96   Adapter: 4  ID: 0

Режим чтения                 : Достоверность
Использование точного потока : Да
Отключение кэша аудио        : Да
Использование указателей C2  : Нет

Коррекция смещения при чтении                     : 48
Способность читать области Lead-in и Lead-out     : Нет
Заполнение пропущенных сэмплов тишиной            : Да
Удаление блоков с тишиной в начале и конце        : Нет
При вычислениях CRC использовались нулевые сэмплы : Да
Интерфейс                                         : Встроенный Win32-интерфейс для Win NT/2000

Выходной формат : Внутренние WAV-операции
Формат сэмплов  : 44.100 Гц; 16 бит; стерео

TOC извлечённого CD

     Трек |   Старт  | Длительность | Начальный сектор | Конечный сектор
    ---------------------------------------------------------------------
       1  |  0:00.00 |    4:01.00   |           0      |      18074     
       2  |  4:01.00 |    4:21.10   |       18075      |      37659     
       3  |  8:22.10 |    4:21.70   |       37660      |      57304     
       4  | 12:44.05 |    4:03.36   |       57305      |      75565     
       5  | 16:47.41 |    5:04.07   |       75566      |      98372     
       6  | 21:51.48 |    4:23.57   |       98373      |     118154     
       7  | 26:15.30 |    4:33.54   |      118155      |     138683     
       8  | 30:49.09 |    3:54.46   |      138684      |     156279     
       9  | 34:43.55 |    4:14.20   |      156280      |     175349     
      10  | 38:58.00 |    4:08.60   |      175350      |     194009     
      11  | 43:06.60 |    3:47.47   |      194010      |     211081     

Характеристики диапазона извлечения и сообщения об ошибках

Выбранный диапазон

     Имя файла C:\Temp\Образы\Maxi Boom - Мы по дороге едим.wav

     Ошибка записи файла
     Пиковый уровень 100.0 %
     Качество диапазона 100.0 %
     CRC теста 5A57454B
     CRC копии 5A57454B
     Копирование... OK

Были ошибки

Конец отчёта
pic
Если тебе не спится 2001

01. Я тебе не верю
02. Если тебе не спится...
03. Давай прыгай
04. Третий лишний (Maxi Beat House Mix)
05. Эй, подруга
06. Обломайся
07. Няня
08. Свет твоих глаз
09. Симона
10. Я буду вечно тебя ждать (Maxi Beat Club Mix)
11. Третий лишний
12. Пацанка (Pamping House Mix)

Код:

Exact Audio Copy V0.99 prebeta 5 from 4. May 2009

Отчёт EAC об извлечении, выполненном 23. апреля 2011, 21:26

Maxi Boom / Если тебе не спится...

Дисковод: HWPEFS  N01M3C96   Adapter: 4  ID: 0

Режим чтения                 : Достоверность
Использование точного потока : Да
Отключение кэша аудио        : Да
Использование указателей C2  : Нет

Коррекция смещения при чтении                     : 48
Способность читать области Lead-in и Lead-out     : Нет
Заполнение пропущенных сэмплов тишиной            : Да
Удаление блоков с тишиной в начале и конце        : Нет
При вычислениях CRC использовались нулевые сэмплы : Да
Интерфейс                                         : Встроенный Win32-интерфейс для Win NT/2000

Выходной формат : Внутренние WAV-операции
Формат сэмплов  : 44.100 Гц; 16 бит; стерео

TOC извлечённого CD

     Трек |   Старт  | Длительность | Начальный сектор | Конечный сектор
    ---------------------------------------------------------------------
       1  |  0:00.00 |    4:55.48   |           0      |      22172     
       2  |  4:55.48 |    4:36.68   |       22173      |      42940     
       3  |  9:32.41 |    5:26.45   |       42941      |      67435     
       4  | 14:59.11 |    4:15.50   |       67436      |      86610     
       5  | 19:14.61 |    4:26.03   |       86611      |     106563     
       6  | 23:40.64 |    3:31.65   |      106564      |     122453     
       7  | 27:12.54 |    4:05.37   |      122454      |     140865     
       8  | 31:18.16 |    4:40.55   |      140866      |     161920     
       9  | 35:58.71 |    4:17.35   |      161921      |     181230     
      10  | 40:16.31 |    4:38.33   |      181231      |     202113     
      11  | 44:54.64 |    3:36.20   |      202114      |     218333     
      12  | 48:31.09 |    5:14.06   |      218334      |     241889     

Характеристики диапазона извлечения и сообщения об ошибках

Выбранный диапазон

     Имя файла C:\Temp\Образы\Maxi Boom - Если тебе не спится....wav

     Пиковый уровень 100.0 %
     Качество диапазона 100.0 %
     CRC теста AA2A9F72
     CRC копии AA2A9F72
     Копирование... OK

Ошибок не произошло

Конец отчёта
pic
Как много неба! 2002

01. Как много неба!
02. Ну почему?
03. Две или одна
04. Дуй в свисток
05. Я тебя отпускаю
06. Девчонки попадают
07. Euro Boom
08. Ibiza Party
09. Boom!!!
10. Ты меня позови
11. Лето и зима
12. Посвящение (В память о трагедии в дельфинариуме)
13. Chicken Dance
14. Не ходи со мной рядом (Maxi - Boom Dance Version)
15. Ночь (Rmx)

Код:

Exact Audio Copy V0.99 prebeta 5 from 4. May 2009

Отчёт EAC об извлечении, выполненном 26. апреля 2011, 0:48

Maxi Boom / Как много неба!

Дисковод: PLEXTOR DVDR   PX-800A   Adapter: 0  ID: 0

Режим чтения                 : Достоверность
Использование точного потока : Да
Отключение кэша аудио        : Да
Использование указателей C2  : Нет

Коррекция смещения при чтении                     : 48
Способность читать области Lead-in и Lead-out     : Нет
Заполнение пропущенных сэмплов тишиной            : Да
Удаление блоков с тишиной в начале и конце        : Нет
При вычислениях CRC использовались нулевые сэмплы : Да
Интерфейс                                         : Встроенный Win32-интерфейс для Win NT/2000

Выходной формат : Внутренние WAV-операции
Формат сэмплов  : 44.100 Гц; 16 бит; стерео

TOC извлечённого CD

     Трек |   Старт  | Длительность | Начальный сектор | Конечный сектор
    ---------------------------------------------------------------------
       1  |  0:00.00 |    4:16.29   |           0      |      19228     
       2  |  4:16.29 |    3:53.59   |       19229      |      36762     
       3  |  8:10.13 |    3:54.38   |       36763      |      54350     
       4  | 12:04.51 |    4:44.21   |       54351      |      75671     
       5  | 16:48.72 |    4:04.50   |       75672      |      94021     
       6  | 20:53.47 |    3:59.02   |       94022      |     111948     
       7  | 24:52.49 |    5:59.53   |      111949      |     138926     
       8  | 30:52.27 |    4:13.33   |      138927      |     157934     
       9  | 35:05.60 |    4:17.64   |      157935      |     177273     
      10  | 39:23.49 |    4:20.18   |      177274      |     196791     
      11  | 43:43.67 |    3:54.03   |      196792      |     214344     
      12  | 47:37.70 |    4:28.54   |      214345      |     234498     
      13  | 52:06.49 |    4:34.48   |      234499      |     255096     
      14  | 56:41.22 |    3:54.41   |      255097      |     272687     
      15  | 60:35.63 |    3:49.48   |      272688      |     289910     

Характеристики диапазона извлечения и сообщения об ошибках

Выбранный диапазон

     Имя файла C:\Temp\Образы\Maxi Boom - Как много неба!.wav

     Пиковый уровень 96.6 %
     Качество диапазона 100.0 %
     CRC теста 78360264
     CRC копии 78360264
     Копирование... OK

Ошибок не произошло

 
AccurateRip: сводка
 
Трек  1  нет в базе данных
Трек  2  нет в базе данных
Трек  3  нет в базе данных
Трек  4  нет в базе данных
Трек  5  нет в базе данных
Трек  6  нет в базе данных
Трек  7  нет в базе данных
Трек  8  нет в базе данных
Трек  9  нет в базе данных
Трек 10  нет в базе данных
Трек 11  нет в базе данных
Трек 12  нет в базе данных
Трек 13  нет в базе данных
Трек 14  нет в базе данных
Трек 15  нет в базе данных
 
Ни одного трека нет в базе AccurateRip

Конец отчёта
pic
Зараза 2003

01. Где-То Далеко (Весело о грустном)
02. Зараза (Ну очень заразная песня)
03. Где Зимуют Раки, Раки MF (Открытие великого секрета)
04. У Попа Была Собака (Песня в защиту голодных собак)
05. Фабрика Звезд (Как Делают Звезд) Maxi Boom Feat. Вавян (Германия)
06. Без Тебя (Maxi Boom feat. Апельсин 2х2)
07. Красиво (Maxi Boom & В.Меладзе)
08. Chicken Dance, Party II (Исповедь желтого цыпленка)
09. Я Буду Вечно Тебя Ждать (Грустная песня)
10. Давай ПоП-РЫГАЙ (RMX) D. J. Dima & Natasha Club Mix
11. Где-То Далеко (Акустика)

Код:

Exact Audio Copy V0.99 prebeta 5 from 4. May 2009

Отчёт EAC об извлечении, выполненном 24. апреля 2011, 2:03

Maxi Boom / Зараза

Дисковод: PLEXTOR DVDR   PX-800A   Adapter: 0  ID: 0

Режим чтения                 : Достоверность
Использование точного потока : Да
Отключение кэша аудио        : Да
Использование указателей C2  : Нет

Коррекция смещения при чтении                     : 48
Способность читать области Lead-in и Lead-out     : Нет
Заполнение пропущенных сэмплов тишиной            : Да
Удаление блоков с тишиной в начале и конце        : Нет
При вычислениях CRC использовались нулевые сэмплы : Да
Интерфейс                                         : Встроенный Win32-интерфейс для Win NT/2000

Выходной формат : Внутренние WAV-операции
Формат сэмплов  : 44.100 Гц; 16 бит; стерео

TOC извлечённого CD

     Трек |   Старт  | Длительность | Начальный сектор | Конечный сектор
    ---------------------------------------------------------------------
       1  |  0:00.00 |    3:33.65   |           0      |      16039     
       2  |  3:33.65 |    4:29.56   |       16040      |      36270     
       3  |  8:03.46 |    4:11.09   |       36271      |      55104     
       4  | 12:14.55 |    4:24.29   |       55105      |      74933     
       5  | 16:39.09 |    4:02.57   |       74934      |      93140     
       6  | 20:41.66 |    5:00.19   |       93141      |     115659     
       7  | 25:42.10 |    4:18.58   |      115660      |     135067     
       8  | 30:00.68 |    4:03.28   |      135068      |     153320     
       9  | 34:04.21 |    4:07.58   |      153321      |     171903     
      10  | 38:12.04 |    6:44.32   |      171904      |     202235     
      11  | 44:56.36 |    3:06.72   |      202236      |     216257     

Характеристики диапазона извлечения и сообщения об ошибках

Выбранный диапазон

     Имя файла C:\Temp\Образы\Maxi Boom - Зараза.wav

     Пиковый уровень 96.6 %
     Качество диапазона 100.0 %
     CRC теста DE1A92BE
     CRC копии DE1A92BE
     Копирование... OK

Ошибок не произошло

 
AccurateRip: сводка
 
Трек  1  нет в базе данных
Трек  2  нет в базе данных
Трек  3  нет в базе данных
Трек  4  нет в базе данных
Трек  5  нет в базе данных
Трек  6  нет в базе данных
Трек  7  нет в базе данных
Трек  8  нет в базе данных
Трек  9  нет в базе данных
Трек 10  нет в базе данных
Трек 11  нет в базе данных
 
Ни одного трека нет в базе AccurateRip

Конец отчёта
Данный материал из частной коллекции пользователя и носит характер объявления. Если вас заинтересовала данная тема, вы можете связаться с автором сообщения и обсудить детали обмена. Для более подробной информации прочтите правила обмена.
дай скачать эти альбомы!

dimka007
поделись альбомами maxi boom
= Ну я тут... Жду желтый.

dimka007 писал(а):

(Pop) Maxi Boom - 4 альбома 2000-2003, FLAC (image + .cue)

Страница 1 из 1

new_topic  reply_topic

Текущее время: 23-Окт 14:59
Часовой пояс: GMT + 4

m Сделано с любовью PR-CY.ru Каталог webplus.info