Вход на сайт

Имя:
Пароль:

· Забыли пароль?
logo
Портал Форум
Регистрация Вход


new_topic  reply_topic

  (Dance) Dance & Trance 2 - 2001, FLAC (image + .cue)

pic
Год выпуска: 2001
Страна: Эстония
Жанр: Trance, Techno, Euro House
Номер #: REC 0013.2
Продолжительность: 1:15:57

Тип издания: сборник
Аудио кодек: FLAC
Тип рипа: (image + .cue)
Битрейт аудио: lossless

Треклист:
  1. Warp Brothers – We Will Survive (Single Mix)
  2. Kosmonova – Discover The World (Short Version)
  3. Aquagen – Lovemachine (Radio Mix)
  4. Gigi D'Agostino – La Passion (Cielo Mix)
  5. Mauro Picotto – Save A Soul (Komodo)
  6. Anaconda – You You You (Radio Mix)
  7. Paps 'n' Skar – Turn Around (Original Radio Mix)
  8. Floorfilla – Anthem #3
  9. Exit – Beautiful Day
  10. Mo-Do Feat. Maurizio Ferrara – Eins Zwei Polizei
  11. Lilu – Little Girl (Eiffel 65 Radio Edit)
  12. Trinity – Ocean Of Eternity
  13. Orbital Feat. Chicco – Breeze Of Sorrows
  14. Mario Più – Techno Harmony (Video Edit Mix)
  15. Mario Lopez – The Sound Of Nature - Part II (Radio&Video)
  16. Greenhouse feat. Gerideau – All I Need (Radio Edit)
  17. Bass Kingz – The Rhythm (Radio Mix)
  18. Marc van Linden – Clubbiemus (Radio Edit)
  19. Lightforce – Dream Of The Dolphin (Radio Mix)
  20. Kim Lucas – All I Really Want (Eiffel 65 Single Remix)

Код:

Exact Audio Copy V0.99 prebeta 5 from 4. May 2009

Отчёт EAC об извлечении, выполненном 30. апреля 2011, 21:07

Various / Dance & Trance 2

Дисковод: TSSTcorpCDDVDW SH-S223B   Adapter: 2  ID: 0

Режим чтения                 : Достоверность
Использование точного потока : Да
Отключение кэша аудио        : Да
Использование указателей C2  : Нет

Коррекция смещения при чтении                     : 6
Способность читать области Lead-in и Lead-out     : Нет
Заполнение пропущенных сэмплов тишиной            : Да
Удаление блоков с тишиной в начале и конце        : Нет
При вычислениях CRC использовались нулевые сэмплы : Да
Интерфейс                                         : Встроенный Win32-интерфейс для Win NT/2000

Выходной формат : Внутренние WAV-операции
Формат сэмплов  : 44.100 Гц; 16 бит; стерео

TOC извлечённого CD

     Трек |   Старт  | Длительность | Начальный сектор | Конечный сектор
    ---------------------------------------------------------------------
       1  |  0:00.00 |    3:44.72   |           0      |      16871     
       2  |  3:44.72 |    3:36.02   |       16872      |      33073     
       3  |  7:20.74 |    3:08.22   |       33074      |      47195     
       4  | 10:29.21 |    7:24.49   |       47196      |      80544     
       5  | 17:53.70 |    5:31.38   |       80545      |     105407     
       6  | 23:25.33 |    2:51.44   |      105408      |     118276     
       7  | 26:17.02 |    3:22.22   |      118277      |     133448     
       8  | 29:39.24 |    3:36.54   |      133449      |     149702     
       9  | 33:16.03 |    4:00.34   |      149703      |     167736     
      10  | 37:16.37 |    3:39.58   |      167737      |     184219     
      11  | 40:56.20 |    3:25.24   |      184220      |     199618     
      12  | 44:21.44 |    3:29.27   |      199619      |     215320     
      13  | 47:50.71 |    3:39.08   |      215321      |     231753     
      14  | 51:30.04 |    3:28.21   |      231754      |     247374     
      15  | 54:58.25 |    2:57.31   |      247375      |     260680     
      16  | 57:55.56 |    3:14.59   |      260681      |     275289     
      17  | 61:10.40 |    4:04.04   |      275290      |     293593     
      18  | 65:14.44 |    3:59.29   |      293594      |     311547     
      19  | 69:13.73 |    2:44.61   |      311548      |     323908     
      20  | 71:58.59 |    3:59.03   |      323909      |     341836     

Характеристики диапазона извлечения и сообщения об ошибках

Выбранный диапазон

     Имя файла M:\Эстонская музыка\Dance & Trance 2\Dance & Trance 2.wav

     Пиковый уровень 100.0 %
     Качество диапазона 100.0 %
     CRC теста DDC6E243
     CRC копии DDC6E243
     Копирование... OK

Ошибок не произошло

 
AccurateRip: сводка
 
Трек  1  нет в базе данных
Трек  2  нет в базе данных
Трек  3  нет в базе данных
Трек  4  нет в базе данных
Трек  5  нет в базе данных
Трек  6  нет в базе данных
Трек  7  нет в базе данных
Трек  8  нет в базе данных
Трек  9  нет в базе данных
Трек 10  нет в базе данных
Трек 11  нет в базе данных
Трек 12  нет в базе данных
Трек 13  нет в базе данных
Трек 14  нет в базе данных
Трек 15  нет в базе данных
Трек 16  нет в базе данных
Трек 17  нет в базе данных
Трек 18  нет в базе данных
Трек 19  нет в базе данных
Трек 20  нет в базе данных
 
Ни одного трека нет в базе AccurateRip

Конец отчёта

Релиз: pic
dimassamid допиши в заголовке, что это 2 часть.

Alex2GB писал(а):

dimassamid допиши в заголовке, что это 2 часть.
Дописал

Страница 1 из 1

new_topic  reply_topic

Текущее время: 25-Янв 12:26
Часовой пояс: GMT + 4

m Сделано с любовью PR-CY.ru Каталог webplus.info