Вход на сайт

Имя:
Пароль:

· Забыли пароль?
logo
Портал Форум
Регистрация Вход


new_topic  reply_topic

  (Euro House) Masterboy – Shake It Up And Dance 1991, FLAC (image + .cue)

pic
Год выпуска: 1991
Страна: Германия
Жанр: Euro House
Номер #: 879 401-2
Продолжительность: ~ 17 минут

Тип издания: сингл
Аудио кодек: FLAC
Тип рипа: (image + .cue)
Битрейт аудио: lossless


Трэклист:

01. Shake It Up And Dance (Maxi Live Version)
02. Shake It Up And Dance (Single Version)
03. Shake It Up And Dance (Instrumental Maxi Version)

Код:

Exact Audio Copy V0.99 prebeta 5 from 4. May 2009

Отчёт EAC об извлечении, выполненном 11. мая 2011, 22:05

Masterboy / Shake It Up And Dance

Дисковод: PLEXTOR DVDR   PX-800A   Adapter: 0  ID: 0

Режим чтения                 : Достоверность
Использование точного потока : Да
Отключение кэша аудио        : Да
Использование указателей C2  : Нет

Коррекция смещения при чтении                     : 48
Способность читать области Lead-in и Lead-out     : Нет
Заполнение пропущенных сэмплов тишиной            : Да
Удаление блоков с тишиной в начале и конце        : Нет
При вычислениях CRC использовались нулевые сэмплы : Да
Интерфейс                                         : Встроенный Win32-интерфейс для Win NT/2000

Выходной формат : Внутренние WAV-операции
Формат сэмплов  : 44.100 Гц; 16 бит; стерео

TOC извлечённого CD

     Трек |   Старт  | Длительность | Начальный сектор | Конечный сектор
    ---------------------------------------------------------------------
       1  |  0:00.32 |    6:47.45   |          32      |      30601     
       2  |  6:48.02 |    4:19.60   |       30602      |      50086     
       3  | 11:07.62 |    5:37.60   |       50087      |      75421     

Характеристики диапазона извлечения и сообщения об ошибках

Выбранный диапазон

     Имя файла C:\Temp\Образы\Masterboy - Shake It Up And Dance.wav

     Пиковый уровень 86.5 %
     Качество диапазона 100.0 %
     CRC теста CCEF90E1
     CRC копии CCEF90E1
     Копирование... OK

Ошибок не произошло

 
AccurateRip: сводка
 
Трек  1  точное извлечение (доверие 3)  [8471C9E7]
Трек  2  точное извлечение (доверие 3)  [F73AB92E]
Трек  3  точное извлечение (доверие 3)  [649E6564]
 
Все треки извлечены точно

Конец отчёта

Страница 1 из 1

new_topic  reply_topic

Текущее время: 23-Окт 14:52
Часовой пояс: GMT + 4

m Сделано с любовью PR-CY.ru Каталог webplus.info