Вход на сайт

Имя:
Пароль:

· Забыли пароль?
logo
Портал Форум
Регистрация Вход


new_topic  reply_topic

  (Eurodance) Masterboy – Anybody (Movin' On) (The Remixes) 1995, FLAC (image + .cue)

pic
Год выпуска: 1995
Страна: Германия
Жанр: Eurodance
Номер #: 577 285-2
Продолжительность: ~ 37 минут

Тип издания: сингл
Аудио кодек: FLAC
Тип рипа: (image + .cue)
Битрейт аудио: lossless


Трэклист:

01. Anybody (Movin' On) (Felix J. Gauder Radio Rmx)
02. Anybody (Movin' On) (Felix J. Gauder Radio Rapless Rmx)
03. Anybody (Movin' On) (Felix J. Gauder Rmx)
04. Anybody (Movin' On) (La Casa Di Tokapi Rmx)
05. Anybody (Movin' On) (Felix J. Gauder Rapless Rmx)
06. Anybody (Movin' On) (Tokapi's Club Dub)
07. Anybody (Movin' On) (Neon Rave Rmx)

Код:

Exact Audio Copy V0.99 prebeta 5 from 4. May 2009

Отчёт EAC об извлечении, выполненном 11. мая 2011, 23:55

Masterboy / Anybody (Movin' On) (Remixes)

Дисковод: PLEXTOR DVDR   PX-800A   Adapter: 0  ID: 0

Режим чтения                 : Достоверность
Использование точного потока : Да
Отключение кэша аудио        : Да
Использование указателей C2  : Нет

Коррекция смещения при чтении                     : 48
Способность читать области Lead-in и Lead-out     : Нет
Заполнение пропущенных сэмплов тишиной            : Да
Удаление блоков с тишиной в начале и конце        : Нет
При вычислениях CRC использовались нулевые сэмплы : Да
Интерфейс                                         : Встроенный Win32-интерфейс для Win NT/2000

Выходной формат : Внутренние WAV-операции
Формат сэмплов  : 44.100 Гц; 16 бит; стерео

TOC извлечённого CD

     Трек |   Старт  | Длительность | Начальный сектор | Конечный сектор
    ---------------------------------------------------------------------
       1  |  0:00.33 |    4:08.60   |          33      |      18692     
       2  |  4:09.18 |    3:50.40   |       18693      |      35982     
       3  |  7:59.58 |    6:24.07   |       35983      |      64789     
       4  | 14:23.65 |    5:29.10   |       64790      |      89474     
       5  | 19:53.00 |    5:55.28   |       89475      |     116127     
       6  | 25:48.28 |    5:22.67   |      116128      |     140344     
       7  | 31:11.20 |    5:09.63   |      140345      |     163582     

Характеристики диапазона извлечения и сообщения об ошибках

Выбранный диапазон

     Имя файла C:\Temp\Образы\Masterboy - Anybody (Movin' On) (Remixes).wav

     Пиковый уровень 97.2 %
     Качество диапазона 100.0 %
     CRC теста 3156FDF3
     CRC копии 3156FDF3
     Копирование... OK

Ошибок не произошло

 
AccurateRip: сводка
 
Трек  1  точное извлечение (доверие 1)  [29708D32]
Трек  2  точное извлечение (доверие 1)  [40D91ADC]
Трек  3  точное извлечение (доверие 1)  [2496258E]
Трек  4  точное извлечение (доверие 1)  [9744DAA0]
Трек  5  точное извлечение (доверие 1)  [3DA9F956]
Трек  6  точное извлечение (доверие 1)  [73143F3C]
Трек  7  точное извлечение (доверие 1)  [CD4F4638]
 
Все треки извлечены точно

Конец отчёта

Страница 1 из 1

new_topic  reply_topic

Текущее время: 23-Окт 15:22
Часовой пояс: GMT + 4

m Сделано с любовью PR-CY.ru Каталог webplus.info