Вход на сайт

Имя:
Пароль:

· Забыли пароль?
logo
Портал Форум
Регистрация Вход


new_topic  reply_topic

  (Pop) Союз 23, full - 1998, FLAC (image + .cue)

pic
Год выпуска: 1998
Страна: Россия
Жанр: Pop
Номер #: SZCD 1100-98 (Студия "СОЮЗ")
Продолжительность: 1:05:10 + 0:58:11

Тип издания: сборник
Аудио кодек: FLAC
Тип рипа: (image + .cue)
Битрейт аудио: lossless

Треклист:

CD1

  1. Shura - День за окном
  2. Андрей Губин - Забытый тобой
  3. Алла Горбачева - Сон-трава
  4. Филипп Киркоров - Ой, мама, шика дам
  5. Алла Пугачева - Мало-помалу
  6. Борис Моисеев и Николай Трубач - Голубая луна
  7. Лариса Черникова - Вспоминать и не надо
  8. Отпетые мошенники - Всяко-разно
  9. Капитан Джефф - Параллельный мир
  10. Точка росы - Сиртаки
  11. С.Т.Д.К. - Вот лето пролетело и АГА
  12. Натали - Облака
  13. Евгений Осин - Таня + Володя
  14. Унесенные ветром - Какао
  15. Машина времени - Пусть лучше мир прогнется под нас
  16. Анита Цой - Далеко


CD2

  1. Иванушки International - Тополиный пух (Remix)
  2. Наталья Сенчукова - Больше мне не звони
  3. Александр Шевченко - Я тебя не буду искать
  4. Карамель - Шуба-дуба
  5. Дискотека Авария - Девочка
  6. Кафе - Товарищ сержант
  7. Агата Кристи - Ковер-вертолет
  8. Белый орел - Как упоительны в России вечера
  9. Шиншиллы - Три желтых розы
  10. Маршал - Может быть
  11. Лара д'Элиа - Мамаякерра
  12. Владимир Асимов - Самоволочка
  13. Марина Хлебникова - Полоска взлетная
  14. На-на - Игра
  15. Золотое кольцо - Пой, гитара, пой
  16. Восток - Донна Осень

Код:

Exact Audio Copy V0.99 prebeta 5 from 4. May 2009

Отчёт EAC об извлечении, выполненном 20. мая 2011, 19:03

Various / Союз-23 CD1

Дисковод: TSSTcorpCDDVDW SH-S223B   Adapter: 2  ID: 0

Режим чтения                 : Достоверность
Использование точного потока : Да
Отключение кэша аудио        : Да
Использование указателей C2  : Нет

Коррекция смещения при чтении                     : 6
Способность читать области Lead-in и Lead-out     : Нет
Заполнение пропущенных сэмплов тишиной            : Да
Удаление блоков с тишиной в начале и конце        : Нет
При вычислениях CRC использовались нулевые сэмплы : Да
Интерфейс                                         : Встроенный Win32-интерфейс для Win NT/2000

Выходной формат : Внутренние WAV-операции
Формат сэмплов  : 44.100 Гц; 16 бит; стерео

TOC извлечённого CD

     Трек |   Старт  | Длительность | Начальный сектор | Конечный сектор
    ---------------------------------------------------------------------
       1  |  0:00.30 |    4:13.08   |          30      |      19012     
       2  |  4:13.38 |    3:38.31   |       19013      |      35393     
       3  |  7:51.69 |    5:16.67   |       35394      |      59160     
       4  | 13:08.61 |    3:43.41   |       59161      |      75926     
       5  | 16:52.27 |    2:59.46   |       75927      |      89397     
       6  | 19:51.73 |    4:46.69   |       89398      |     110916     
       7  | 24:38.67 |    3:47.46   |      110917      |     127987     
       8  | 28:26.38 |    3:32.06   |      127988      |     143893     
       9  | 31:58.44 |    5:07.24   |      143894      |     166942     
      10  | 37:05.68 |    3:41.57   |      166943      |     183574     
      11  | 40:47.50 |    5:24.01   |      183575      |     207875     
      12  | 46:11.51 |    3:18.42   |      207876      |     222767     
      13  | 49:30.18 |    3:31.49   |      222768      |     238641     
      14  | 53:01.67 |    3:55.41   |      238642      |     256307     
      15  | 56:57.33 |    3:16.40   |      256308      |     271047     
      16  | 60:13.73 |    4:56.19   |      271048      |     293266     

Характеристики диапазона извлечения и сообщения об ошибках

Выбранный диапазон

     Имя файла M:\Сборники\Сборники СОЮЗ\Союз-23 (1998) lossless, full\CD1\Союз-23 CD1.wav

     Пиковый уровень 100.0 %
     Качество диапазона 100.0 %
     CRC теста 7CB3CF66
     CRC копии 7CB3CF66
     Копирование... OK

Ошибок не произошло

 
AccurateRip: сводка
 
Трек  1  точное извлечение (доверие 1)  [8F4C9634]
Трек  2  точное извлечение (доверие 1)  [21473831]
Трек  3  точное извлечение (доверие 1)  [A733AD3E]
Трек  4  точное извлечение (доверие 1)  [C490A079]
Трек  5  точное извлечение (доверие 1)  [5EABB3B3]
Трек  6  точное извлечение (доверие 1)  [55325618]
Трек  7  точное извлечение (доверие 1)  [D6BA4A39]
Трек  8  точное извлечение (доверие 1)  [16EE0C80]
Трек  9  точное извлечение (доверие 1)  [1F784AF8]
Трек 10  точное извлечение (доверие 1)  [9AF609DC]
Трек 11  точное извлечение (доверие 1)  [C2167361]
Трек 12  точное извлечение (доверие 1)  [AFF6FDDF]
Трек 13  точное извлечение (доверие 1)  [E1AB2952]
Трек 14  точное извлечение (доверие 1)  [39D6A36B]
Трек 15  точное извлечение (доверие 1)  [36745160]
Трек 16  точное извлечение (доверие 1)  [8F9FA833]
 
Все треки извлечены точно

Конец отчёта

Код:

Exact Audio Copy V0.99 prebeta 5 from 4. May 2009

Отчёт EAC об извлечении, выполненном 20. мая 2011, 20:15

Various / Союз-23 CD2

Дисковод: TSSTcorpCDDVDW SH-S223B   Adapter: 2  ID: 0

Режим чтения                 : Достоверность
Использование точного потока : Да
Отключение кэша аудио        : Да
Использование указателей C2  : Нет

Коррекция смещения при чтении                     : 6
Способность читать области Lead-in и Lead-out     : Нет
Заполнение пропущенных сэмплов тишиной            : Да
Удаление блоков с тишиной в начале и конце        : Нет
При вычислениях CRC использовались нулевые сэмплы : Да
Интерфейс                                         : Встроенный Win32-интерфейс для Win NT/2000

Выходной формат : Внутренние WAV-операции
Формат сэмплов  : 44.100 Гц; 16 бит; стерео

TOC извлечённого CD

     Трек |   Старт  | Длительность | Начальный сектор | Конечный сектор
    ---------------------------------------------------------------------
       1  |  0:00.30 |    3:38.52   |          30      |      16431     
       2  |  3:39.07 |    3:22.25   |       16432      |      31606     
       3  |  7:01.32 |    4:42.19   |       31607      |      52775     
       4  | 11:43.51 |    3:22.46   |       52776      |      67971     
       5  | 15:06.22 |    3:19.23   |       67972      |      82919     
       6  | 18:25.45 |    3:42.46   |       82920      |      99615     
       7  | 22:08.16 |    3:20.08   |       99616      |     114623     
       8  | 25:28.24 |    4:07.46   |      114624      |     133194     
       9  | 29:35.70 |    3:41.53   |      133195      |     149822     
      10  | 33:17.48 |    4:26.35   |      149823      |     169807     
      11  | 37:44.08 |    4:08.40   |      169808      |     188447     
      12  | 41:52.48 |    2:47.36   |      188448      |     201008     
      13  | 44:40.09 |    3:33.51   |      201009      |     217034     
      14  | 48:13.60 |    3:22.70   |      217035      |     232254     
      15  | 51:36.55 |    2:52.68   |      232255      |     245222     
      16  | 54:29.48 |    3:41.66   |      245223      |     261863     

Характеристики диапазона извлечения и сообщения об ошибках

Выбранный диапазон

     Имя файла M:\Сборники\Сборники СОЮЗ\Союз-23 (1998) lossless, full\CD2\Союз-23 CD2.wav

     Пиковый уровень 99.9 %
     Качество диапазона 100.0 %
     CRC теста FAB6CA08
     CRC копии FAB6CA08
     Копирование... OK

Ошибок не произошло

 
AccurateRip: сводка
 
Трек  1  точное извлечение (доверие 2)  [6C8B0A3E]
Трек  2  точное извлечение (доверие 2)  [C135E1CF]
Трек  3  точное извлечение (доверие 2)  [89F568D4]
Трек  4  точное извлечение (доверие 2)  [835BCF77]
Трек  5  точное извлечение (доверие 2)  [36411D54]
Трек  6  точное извлечение (доверие 2)  [545204EB]
Трек  7  точное извлечение (доверие 2)  [42463E58]
Трек  8  точное извлечение (доверие 2)  [3EC6A02D]
Трек  9  точное извлечение (доверие 2)  [85F6C9CF]
Трек 10  точное извлечение (доверие 2)  [C9145B00]
Трек 11  точное извлечение (доверие 2)  [1E7698D9]
Трек 12  точное извлечение (доверие 2)  [D71217B9]
Трек 13  точное извлечение (доверие 2)  [40B88530]
Трек 14  точное извлечение (доверие 2)  [1F3AC8AD]
Трек 15  точное извлечение (доверие 2)  [694B2EC5]
Трек 16  точное извлечение (доверие 2)  [C6647E57]
 
Все треки извлечены точно

Конец отчёта
Релиз: pic


Страница 1 из 1

new_topic  reply_topic

Текущее время: 27-Окт 04:22
Часовой пояс: GMT + 4

m Сделано с любовью PR-CY.ru Каталог webplus.info