Вход на сайт

Имя:
Пароль:

· Забыли пароль?
logo
Портал Форум
Регистрация Вход


new_topic  reply_topic

  (Pop) Союз 22, full - 1998, FLAC (image + .cue)

pic
Год выпуска: 1998
Страна: Россия
Жанр: Pop
Номер #: SZCD 1000-98 (Студия "СОЮЗ")
Продолжительность: 0:54:12 + 0:51:10

Тип издания: сборник
Аудио кодек: FLAC
Тип рипа: (image + .cue)
Битрейт аудио: lossless

Треклист:

CD1

  1. Андрей Губин - Я знаю, ты знаешь
  2. Леонид Агутин - Полночи
  3. Юлия Началова - Любовь
  4. Мурат Насыров - Моя история
  5. Алёна Апина - Люби его
  6. Валерий Меладзе - Говорила ты...
  7. Блестящие - Облака
  8. Рок-острова - Маленькая колдунья
  9. Коля Паралепипед - Так нельзя
  10. Шиншилы - Поющие в терновике
  11. Восток - Просто так
  12. Александр Айвазов - Человек под дождём
  13. Светлана Рерих - Ветер в парус
  14. Демидыч - Чукча


CD2

  1. Натали - Ветер с моря дул
  2. Мармелад - Колечко
  3. Анжелика Варум и Леонид Агутин - Февраль
  4. Класс - Но, но ночью так темно
  5. Татьяна Иванова и гр. Комбинация - Плачь, не плачь
  6. Филипп Киркоров - Веришь мне или не веришь
  7. Трио 'Гранд' - Лам–лам
  8. Диана - Не целуй её
  9. Мурат Насыров - Южная ночь
  10. Золотое кольцо - Задумал да старый дед
  11. Заплатки - Завтра выходной!
  12. Shura - Don-don-don!
  13. Нэнси - Стройная, красивая
  14. 'Лихо' и Игорь Слуцкий - Приходите в мой дом

Код:

Exact Audio Copy V0.99 prebeta 5 from 4. May 2009

Отчёт EAC об извлечении, выполненном 20. мая 2011, 21:36

Various / Союз-22 CD1

Дисковод: TSSTcorpCDDVDW SH-S223B   Adapter: 2  ID: 0

Режим чтения                 : Достоверность
Использование точного потока : Да
Отключение кэша аудио        : Да
Использование указателей C2  : Нет

Коррекция смещения при чтении                     : 6
Способность читать области Lead-in и Lead-out     : Нет
Заполнение пропущенных сэмплов тишиной            : Да
Удаление блоков с тишиной в начале и конце        : Нет
При вычислениях CRC использовались нулевые сэмплы : Да
Интерфейс                                         : Встроенный Win32-интерфейс для Win NT/2000

Выходной формат : Внутренние WAV-операции
Формат сэмплов  : 44.100 Гц; 16 бит; стерео

TOC извлечённого CD

     Трек |   Старт  | Длительность | Начальный сектор | Конечный сектор
    ---------------------------------------------------------------------
       1  |  0:00.10 |    4:06.45   |          10      |      18504     
       2  |  4:06.55 |    4:06.62   |       18505      |      37016     
       3  |  8:13.42 |    3:56.38   |       37017      |      54754     
       4  | 12:10.05 |    4:04.05   |       54755      |      73059     
       5  | 16:14.10 |    3:14.60   |       73060      |      87669     
       6  | 19:28.70 |    3:16.00   |       87670      |     102369     
       7  | 22:44.70 |    4:36.57   |      102370      |     123126     
       8  | 27:21.52 |    4:14.65   |      123127      |     142241     
       9  | 31:36.42 |    3:58.53   |      142242      |     160144     
      10  | 35:35.20 |    4:20.55   |      160145      |     179699     
      11  | 39:56.00 |    3:59.27   |      179700      |     197651     
      12  | 43:55.27 |    3:16.60   |      197652      |     212411     
      13  | 47:12.12 |    3:17.03   |      212412      |     227189     
      14  | 50:29.15 |    3:43.52   |      227190      |     243966     

Характеристики диапазона извлечения и сообщения об ошибках

Выбранный диапазон

     Имя файла M:\Сборники\Сборники СОЮЗ\Союз-22 (1998) lossless, full\CD1\Союз 22 (CD1).wav

     Пиковый уровень 99.9 %
     Качество диапазона 99.9 %
     CRC теста C81182D3
     CRC копии C81182D3
     Копирование... OK

Ошибок не произошло

 
AccurateRip: сводка
 
Трек  1  нет в базе данных
Трек  2  нет в базе данных
Трек  3  нет в базе данных
Трек  4  нет в базе данных
Трек  5  нет в базе данных
Трек  6  нет в базе данных
Трек  7  нет в базе данных
Трек  8  нет в базе данных
Трек  9  нет в базе данных
Трек 10  нет в базе данных
Трек 11  нет в базе данных
Трек 12  нет в базе данных
Трек 13  нет в базе данных
Трек 14  нет в базе данных
 
Ни одного трека нет в базе AccurateRip

Конец отчёта

Код:

Exact Audio Copy V0.99 prebeta 5 from 4. May 2009

Отчёт EAC об извлечении, выполненном 20. мая 2011, 22:42

Various / Союз-22 (CD2)

Дисковод: TSSTcorpCDDVDW SH-S223B   Adapter: 2  ID: 0

Режим чтения                 : Достоверность
Использование точного потока : Да
Отключение кэша аудио        : Да
Использование указателей C2  : Нет

Коррекция смещения при чтении                     : 6
Способность читать области Lead-in и Lead-out     : Нет
Заполнение пропущенных сэмплов тишиной            : Да
Удаление блоков с тишиной в начале и конце        : Нет
При вычислениях CRC использовались нулевые сэмплы : Да
Интерфейс                                         : Встроенный Win32-интерфейс для Win NT/2000

Выходной формат : Внутренние WAV-операции
Формат сэмплов  : 44.100 Гц; 16 бит; стерео

TOC извлечённого CD

     Трек |   Старт  | Длительность | Начальный сектор | Конечный сектор
    ---------------------------------------------------------------------
       1  |  0:00.10 |    3:45.00   |          10      |      16884     
       2  |  3:45.10 |    3:22.10   |       16885      |      32044     
       3  |  7:07.20 |    4:15.70   |       32045      |      51239     
       4  | 11:23.15 |    3:47.62   |       51240      |      68326     
       5  | 15:11.02 |    3:26.10   |       68327      |      83786     
       6  | 18:37.12 |    2:50.15   |       83787      |      96551     
       7  | 21:27.27 |    3:56.58   |       96552      |     114309     
       8  | 25:24.10 |    3:39.65   |      114310      |     130799     
       9  | 29:04.00 |    3:13.22   |      130800      |     145296     
      10  | 32:17.22 |    2:18.43   |      145297      |     155689     
      11  | 34:35.65 |    3:25.32   |      155690      |     171096     
      12  | 38:01.22 |    4:44.33   |      171097      |     192429     
      13  | 42:45.55 |    4:27.55   |      192430      |     212509     
      14  | 47:13.35 |    3:56.72   |      212510      |     230281     

Характеристики диапазона извлечения и сообщения об ошибках

Выбранный диапазон

     Имя файла M:\Сборники\Сборники СОЮЗ\Союз-22 (1998) lossless, full\CD2\Союз-22 (CD2).wav

     Пиковый уровень 99.9 %
     Качество диапазона 100.0 %
     CRC теста 972BBC15
     CRC копии 972BBC15
     Копирование... OK

Ошибок не произошло

 
AccurateRip: сводка
 
Трек  1  нет в базе данных
Трек  2  нет в базе данных
Трек  3  нет в базе данных
Трек  4  нет в базе данных
Трек  5  нет в базе данных
Трек  6  нет в базе данных
Трек  7  нет в базе данных
Трек  8  нет в базе данных
Трек  9  нет в базе данных
Трек 10  нет в базе данных
Трек 11  нет в базе данных
Трек 12  нет в базе данных
Трек 13  нет в базе данных
Трек 14  нет в базе данных
 
Ни одного трека нет в базе AccurateRip

Конец отчёта
Релиз: pic


Страница 1 из 1

new_topic  reply_topic

Текущее время: 27-Окт 04:09
Часовой пояс: GMT + 4

m Сделано с любовью PR-CY.ru Каталог webplus.info