Вход на сайт

Имя:
Пароль:

· Забыли пароль?
logo
Портал Форум
Регистрация Вход


new_topic  reply_topic

  (Euro House) Masterboy – Best Of (2 CD Digipack) 2000, FLAC (image + .cue)

pic
Год выпуска: 2000
Страна: Германия
Жанр: Euro House
Номер #: 543 364-2
Продолжительность: ~ 107 минут

Тип издания: альбом
Аудио кодек: FLAC
Тип рипа: (image + .cue)
Битрейт аудио: lossless


Трэклист:

CD 1
01. Feel The Heat 2000
02. Porque Te Vas
03. Generation Of Love
04. Land Of Dreaming
05. I Like To Like It
06. I Got To Give It Up
07. Is This The Love
08. Everybody Needs Somebody
09. Anybody (Movin' On)
10. Different Dreams
11. Feel The Heat Of The Night
12. El Ritmo
13. Masterboy Theme
14. Dance To The Beat
15. Shake It Up And Dance
16. Mister Feeling
17. Show Me Colours
18. I Want To Break Free
19. La Ola Hand In Hand
20. Nights On Broadway
21. Just For You

CD 2
01. Mega-Hit-Mix

Код:

Exact Audio Copy V0.99 prebeta 5 from 4. May 2009

Отчёт EAC об извлечении, выполненном 19. мая 2011, 20:38

Masterboy / Best Of Masterboy

Дисковод: PLEXTOR DVDR   PX-800A   Adapter: 0  ID: 0

Режим чтения                 : Достоверность
Использование точного потока : Да
Отключение кэша аудио        : Да
Использование указателей C2  : Нет

Коррекция смещения при чтении                     : 48
Способность читать области Lead-in и Lead-out     : Нет
Заполнение пропущенных сэмплов тишиной            : Да
Удаление блоков с тишиной в начале и конце        : Нет
При вычислениях CRC использовались нулевые сэмплы : Да
Интерфейс                                         : Встроенный Win32-интерфейс для Win NT/2000

Выходной формат : Внутренние WAV-операции
Формат сэмплов  : 44.100 Гц; 16 бит; стерео

TOC извлечённого CD

     Трек |   Старт  | Длительность | Начальный сектор | Конечный сектор
    ---------------------------------------------------------------------
       1  |  0:00.00 |    3:18.67   |           0      |      14916     
       2  |  3:18.67 |    3:25.53   |       14917      |      30344     
       3  |  6:44.45 |    3:37.25   |       30345      |      46644     
       4  | 10:21.70 |    3:30.22   |       46645      |      62416     
       5  | 13:52.17 |    3:40.05   |       62417      |      78921     
       6  | 17:32.22 |    3:34.35   |       78922      |      95006     
       7  | 21:06.57 |    3:42.30   |       95007      |     111686     
       8  | 24:49.12 |    3:54.10   |      111687      |     129246     
       9  | 28:43.22 |    3:53.08   |      129247      |     146729     
      10  | 32:36.30 |    3:43.22   |      146730      |     163476     
      11  | 36:19.52 |    3:39.45   |      163477      |     179946     
      12  | 39:59.22 |    3:21.65   |      179947      |     195086     
      13  | 43:21.12 |    4:21.00   |      195087      |     214661     
      14  | 47:42.12 |    3:43.45   |      214662      |     231431     
      15  | 51:25.57 |    3:31.08   |      231432      |     247264     
      16  | 54:56.65 |    3:50.32   |      247265      |     264546     
      17  | 58:47.22 |    3:32.35   |      264547      |     280481     
      18  | 62:19.57 |    3:25.20   |      280482      |     295876     
      19  | 65:45.02 |    3:40.43   |      295877      |     312419     
      20  | 69:25.45 |    3:29.47   |      312420      |     328141     
      21  | 72:55.17 |    3:42.60   |      328142      |     344851     

Характеристики диапазона извлечения и сообщения об ошибках

Выбранный диапазон

     Имя файла C:\Temp\Образы\Masterboy - Best Of Masterboy (CD 1).wav

     Пиковый уровень 98.2 %
     Качество диапазона 100.0 %
     CRC теста 2AC05ADB
     CRC копии 2AC05ADB
     Копирование... OK

Ошибок не произошло

 
AccurateRip: сводка
 
Трек  1  точное извлечение (доверие 6)  [89EC15B8]
Трек  2  точное извлечение (доверие 6)  [B38B16F7]
Трек  3  точное извлечение (доверие 6)  [920438BC]
Трек  4  точное извлечение (доверие 6)  [FB8157B5]
Трек  5  точное извлечение (доверие 6)  [B3AB7655]
Трек  6  точное извлечение (доверие 6)  [72EF80D9]
Трек  7  точное извлечение (доверие 6)  [23B7444D]
Трек  8  точное извлечение (доверие 6)  [E387FAEA]
Трек  9  точное извлечение (доверие 6)  [E54F84E9]
Трек 10  точное извлечение (доверие 6)  [FCC391FE]
Трек 11  точное извлечение (доверие 6)  [B5552C02]
Трек 12  точное извлечение (доверие 6)  [090EBB48]
Трек 13  точное извлечение (доверие 6)  [4DAFC052]
Трек 14  точное извлечение (доверие 5)  [7300FF41]
Трек 15  точное извлечение (доверие 5)  [A35FE91B]
Трек 16  точное извлечение (доверие 6)  [0779F6EB]
Трек 17  точное извлечение (доверие 6)  [AAC55AFC]
Трек 18  точное извлечение (доверие 6)  [473C8CB9]
Трек 19  точное извлечение (доверие 6)  [4D954BAB]
Трек 20  точное извлечение (доверие 6)  [62312557]
Трек 21  точное извлечение (доверие 6)  [04E072A2]
 
Все треки извлечены точно

Конец отчёта

Страница 1 из 1

new_topic  reply_topic

Текущее время: 23-Сен 00:36
Часовой пояс: GMT + 4

m Сделано с любовью PR-CY.ru Каталог webplus.info