Вход на сайт

Имя:
Пароль:

· Забыли пароль?
logo
Портал Форум
Регистрация Вход


new_topic  reply_topic

  (Euro House) Areena – Don't Break My (Heart Of Glass) 1999, FLAC (image + .cue)

pic
Год выпуска: 1999
Страна: Germany
Жанр: Euro House
Номер #: 7243 8 87047 2 4
Продолжительность: ~22min

Тип издания: сингл
Аудио кодек: FLAC
Тип рипа: (image + .cue)
Битрейт аудио: lossless

Треклист:

1 Don't Break My (Heart Of Glass) (Radio Version) 3:57
2 Don't Break My (Heart Of Glass) (Car Mix) 4:04
3 Don't Break My (Heart Of Glass) (Cyplex Club Mix) 7:41
4 Don't Break My (Heart Of Glass) (Extended Mix) 6:07

Доп. информация: кавер на песню Blondie - Heart Of Glass 1978 года (не первый, конечно же)

Код:

Exact Audio Copy V0.99 prebeta 5 from 4. May 2009

Отчёт EAC об извлечении, выполненном 16. июля 2011, 23:22

Areena / Don't Break My (Heart Of Glass)

Дисковод: Optiarc DVD RW AD-7170A   Adapter: 2  ID: 0

Режим чтения                 : Достоверность
Использование точного потока : Да
Отключение кэша аудио        : Да
Использование указателей C2  : Нет

Коррекция смещения при чтении                     : 48
Способность читать области Lead-in и Lead-out     : Нет
Заполнение пропущенных сэмплов тишиной            : Да
Удаление блоков с тишиной в начале и конце        : Нет
При вычислениях CRC использовались нулевые сэмплы : Да
Интерфейс                                         : Установленный внешний ASPI-интерфейс

Выходной формат : Внутренние WAV-операции
Формат сэмплов  : 44.100 Гц; 16 бит; стерео

TOC извлечённого CD

     Трек |   Старт  | Длительность | Начальный сектор | Конечный сектор
    ---------------------------------------------------------------------
       1  |  0:00.00 |    4:02.32   |           0      |      18181     
       2  |  4:02.32 |    4:05.40   |       18182      |      36596     
       3  |  8:07.72 |    7:43.03   |       36597      |      71324     
       4  | 15:51.00 |    6:10.70   |       71325      |      99144     

Характеристики диапазона извлечения и сообщения об ошибках

Выбранный диапазон

     Имя файла G:\SeaMan\Areena - Don't Break My (Heart Of Glass).wav

     Пиковый уровень 99.9 %
     Качество диапазона 99.9 %
     CRC теста 2F43731F
     CRC копии 2F43731F
     Копирование... OK

Ошибок не произошло

 
AccurateRip: сводка
 
Трек  1  точное извлечение (доверие 1)  [CE4A0F57]
Трек  2  точное извлечение (доверие 1)  [48C79CDC]
Трек  3  точное извлечение (доверие 1)  [BEDE26D4]
Трек  4  точное извлечение (доверие 1)  [0837F197]
 
Все треки извлечены точно

Конец отчёта
MNP

Чего же на 4 оценил, релиз-то супер! И за информацию о кавере спасибо!
Federal

тут видимо ключевым фактором сыграла оценка всего сингла в целом, такое часто бывает, что основной трек на 5, а остальные версии на 4 или вообще на 3. А в целом моя оценка тоже 5, сингл отличный!

Federal писал(а):

MNP

Чего же на 4 оценил, релиз-то супер! И за информацию о кавере спасибо!
потому что мне не очень нравятся подобные переделки.

если кому-то нужен диск- пишите, договоримся.

Страница 1 из 1

new_topic  reply_topic

Текущее время: 25-Янв 01:46
Часовой пояс: GMT + 4

m Сделано с любовью PR-CY.ru Каталог webplus.info