Вход на сайт

Имя:
Пароль:

· Забыли пароль?
logo
Портал Форум
Регистрация Вход


new_topic  reply_topic

  (Euro House) The Best Of DJ Hits Of April' 97 1997, APE (image + .cue)

pic
Год выпуска: 1997
Страна: Болгария
Жанр: Euro House
Номер #: 131128 - 2
Продолжительность: 69:07

Тип издания: сборник
Аудио кодек: APE
Тип рипа: (image + .cue)
Битрейт аудио: lossless

Треклист:

01. Republica - Ready To Go
02. Eros Ramazotti - L` Aurora
03. Painted Love - You Can Do Magic
04. Charly Lownoise & Mental Theo - Party
05. Masterboy - Just For You
06. 3T - I Need You
07. Beat System - What` s Going On ( In You' r Mind )
08. D.I.P. - Give Me Your Lovin' (Radio Edit '97)
09. Love Line - Call It` 97
10. Ondina - Into The Night
11. Alana Dante - They Say It` s Gonna Rain
12. Blizzard - Without You
13. Koolmatch - I Like It, I Luv It
14. Gina G - I Belong To You
15. Backstreet Boys - Anywhere For You
16. Marcel Romanoff - I` d Love You To Want Me
17. Captain Jack - Together And Forever
18. No Doubt - Don` t Speak
19. Kelly Family - Feel In Love With An Alien

Доп. информация: 4 трек исправил на правильного исполнителя. Спасибо Mr. Dee

Код:

Exact Audio Copy V0.99 prebeta 5 from 4. May 2009

Отчёт EAC об извлечении, выполненном 24. сентября 2010, 12:58

Various  Artists / DJ  Hits  Of  April'  97

Дисковод: PIONEER DVD-RW  DVR-110D   Adapter: 1  ID: 1

Режим чтения                 : Достоверность
Использование точного потока : Да
Отключение кэша аудио        : Да
Использование указателей C2  : Нет

Коррекция смещения при чтении                     : 48
Способность читать области Lead-in и Lead-out     : Нет
Заполнение пропущенных сэмплов тишиной            : Да
Удаление блоков с тишиной в начале и конце        : Нет
При вычислениях CRC использовались нулевые сэмплы : Да
Интерфейс                                         : Встроенный Win32-интерфейс для Win NT/2000

Выходной формат          : Monkey's Audio (без потерь)
Выбранный битрейт        : Extra High Lossless Compression
Качество                 : Высокий
Добавление ID3-тэга      : Нет
Утилита сжатия           : C:\Program Files (x86)\Monkey's Audio\MAC.exe

TOC извлечённого CD

     Трек |   Старт  | Длительность | Начальный сектор | Конечный сектор
    ---------------------------------------------------------------------
       1  |  0:00.00 |    3:42.02   |           0      |      16651     
       2  |  3:42.02 |    5:16.40   |       16652      |      40391     
       3  |  8:58.42 |    3:51.20   |       40392      |      57736     
       4  | 12:49.62 |    3:36.03   |       57737      |      73939     
       5  | 16:25.65 |    3:46.00   |       73940      |      90889     
       6  | 20:11.65 |    3:58.30   |       90890      |     108769     
       7  | 24:10.20 |    3:41.42   |      108770      |     125386     
       8  | 27:51.62 |    3:32.18   |      125387      |     141304     
       9  | 31:24.05 |    3:19.35   |      141305      |     156264     
      10  | 34:43.40 |    3:29.30   |      156265      |     171969     
      11  | 38:12.70 |    4:00.60   |      171970      |     190029     
      12  | 42:13.55 |    4:20.05   |      190030      |     209534     
      13  | 46:33.60 |    3:19.57   |      209535      |     224516     
      14  | 49:53.42 |    3:22.05   |      224517      |     239671     
      15  | 53:15.47 |    4:43.05   |      239672      |     260901     
      16  | 57:58.52 |    3:14.05   |      260902      |     275456     
      17  | 61:12.57 |    3:29.08   |      275457      |     291139     
      18  | 64:41.65 |    4:25.45   |      291140      |     311059     
      19  | 69:07.35 |    3:10.70   |      311060      |     325379     

Характеристики диапазона извлечения и сообщения об ошибках

Выбранный диапазон

     Имя файла D:\Bit Torrent 2\Новая папка\Various  Artists - DJ  Hits  Of  April'  97.wav

     Пиковый уровень 100.0 %
     Качество диапазона 99.9 %
     CRC теста E3903674
     CRC копии E3903674
     Копирование... OK

Ошибок не произошло

 
AccurateRip: сводка
 
Трек  1  точное извлечение (доверие 1)  [E834F548]
Трек  2  точное извлечение (доверие 1)  [ED2F05B6]
Трек  3  точное извлечение (доверие 1)  [727FFFF0]
Трек  4  точное извлечение (доверие 1)  [B868E062]
Трек  5  точное извлечение (доверие 1)  [963DA383]
Трек  6  точное извлечение (доверие 1)  [13C23400]
Трек  7  точное извлечение (доверие 1)  [10ED0534]
Трек  8  точное извлечение (доверие 1)  [FA5B945F]
Трек  9  точное извлечение (доверие 1)  [C63074D3]
Трек 10  точное извлечение (доверие 1)  [4886526F]
Трек 11  точное извлечение (доверие 1)  [A45F5D3C]
Трек 12  точное извлечение (доверие 1)  [B6C5A8E6]
Трек 13  точное извлечение (доверие 1)  [4DF6FF77]
Трек 14  точное извлечение (доверие 1)  [83F42D0B]
Трек 15  точное извлечение (доверие 1)  [BF1B5A89]
Трек 16  точное извлечение (доверие 1)  [ECFD5E8A]
Трек 17  точное извлечение (доверие 1)  [577C8EF3]
Трек 18  точное извлечение (доверие 1)  [C2A2D7F2]
Трек 19  точное извлечение (доверие 1)  [95B16503]
 
Все треки извлечены точно

Конец отчёта
shutov12 подправь название 8-го трацка на Give Me Your Lovin
Alex2GB На сканах надпись такая. Но правильно без g, исправил.

shutov12 писал(а):

Alex2GB На сканах надпись такая. Но правильно без g, исправил.
Тогда уж и Your без апострофа (')
Ну ладно, сейчас уберу апостроф. MNP У тебя есть этот трацк ?

shutov12 писал(а):

Ну ладно, сейчас уберу апостроф. MNP У тебя есть этот трацк ?
которого нет на сингле? есть.
сингл тоже есть.
Ну вот, я расстроен, нечем даже с тобой поделиться взамен. Есть такое ещё, Various Artists - Tele 2 Зажигай !. Здесь Blackfeel Wite старенький и ещё кто то. Таких обработок песен нет в нете.

shutov12 писал(а):

Ну вот, я расстроен, нечем даже с тобой поделиться взамен. Есть такое ещё, Various Artists - Tele 2 Зажигай !. Здесь Blackfeel Wite старенький и ещё кто то. Таких обработок песен нет в нете.
не расстраивайся, мне ничего не нужно взамен
shutov12 Версия этого 08. D.I.P. - Give Me Your Lovin' трека называется правильно D.I.P. - Give Me Your Lovin' (Radio Edit '97). Загадка раскрыта)

cool album

Страница 1 из 1

new_topic  reply_topic

Текущее время: 25-Янв 12:18
Часовой пояс: GMT + 4

m Сделано с любовью PR-CY.ru Каталог webplus.info