Вход на сайт

Имя:
Пароль:

· Забыли пароль?
logo
Портал Форум
Регистрация Вход


Статистика раздачи

Размер: 275 MB | Зарегистрирован: 11 лет | Торрент скачан: 0 раз
new_topic  reply_topic

  (Pop) Шпионы как мы - Чё ты хочешь 2005, APE (image + .cue)

pic
Год выпуска: 2005
Страна: Германия
Жанр: Pop
Продолжительность: ~ 43 минуты


Тип издания: альбом
Аудио кодек: APE
Тип рипа: (image + .cue)
Битрейт аудио: lossless


Трэклист:
01. Натаха и Танюха (Intro)"
02. Увела подруга друга feat. Kai
03. Чё ты хочешь?
04. Здраствуй и прощай
05. Бригада из Казахстана feat. Казахстанская бригада
06. Я сегодня напьюсь (Другу Роме)
07. Натаха и Танюха 2
08. Девочка немочка Tschuss feat. M.Koren
10. Темными ночами feat. Kai
11. Мои братья feat. mc LeXX (Казахстанская бригада)
12. Девочка немочка (Dj Pikus feat. Jony Remix)
13. Натаха и Танюха 3
14. Я напьюсь (Hip Hop Mix)
15. Девочка немочка 4ever (Dj Dr.Smile Remix)

Код:

Exact Audio Copy V0.99 prebeta 5 from 4. May 2009

Отчёт EAC об извлечении, выполненном 25. августа 2010, 16:18

Шпионы как мы / Чё ты хочешь?

Дисковод: PLEXTOR DVDR   PX-800A   Adapter: 0  ID: 0

Режим чтения                 : Достоверность
Использование точного потока : Да
Отключение кэша аудио        : Да
Использование указателей C2  : Нет

Коррекция смещения при чтении                     : 48
Способность читать области Lead-in и Lead-out     : Нет
Заполнение пропущенных сэмплов тишиной            : Да
Удаление блоков с тишиной в начале и конце        : Нет
При вычислениях CRC использовались нулевые сэмплы : Да
Интерфейс                                         : Встроенный Win32-интерфейс для Win NT/2000

Выходной формат : Внутренние WAV-операции
Формат сэмплов  : 44.100 Гц; 16 бит; стерео

TOC извлечённого CD

     Трек |   Старт  | Длительность | Начальный сектор | Конечный сектор
    ---------------------------------------------------------------------
       1  |  0:00.00 |    0:34.41   |           0      |       2590     
       2  |  0:34.41 |    3:13.57   |        2591      |      17122     
       3  |  3:48.23 |    2:55.74   |       17123      |      30321     
       4  |  6:44.22 |    3:25.04   |       30322      |      45700     
       5  | 10:09.26 |    3:24.24   |       45701      |      61024     
       6  | 13:33.50 |    2:57.24   |       61025      |      74323     
       7  | 16:30.74 |    0:42.67   |       74324      |      77540     
       8  | 17:13.66 |    3:44.12   |       77541      |      94352     
       9  | 20:58.03 |    3:30.59   |       94353      |     110161     
      10  | 24:28.62 |    3:23.13   |      110162      |     125399     
      11  | 27:52.00 |    4:02.32   |      125400      |     143581     
      12  | 31:54.32 |    3:32.03   |      143582      |     159484     
      13  | 35:26.35 |    0:14.68   |      159485      |     160602     
      14  | 35:41.28 |    2:56.30   |      160603      |     173832     
      15  | 38:37.58 |    4:02.48   |      173833      |     192030     

Характеристики диапазона извлечения и сообщения об ошибках

Выбранный диапазон

     Имя файла C:\Temp\Образы\Шпионы как мы - Чё ты хочешь.wav

     Пиковый уровень 98.8 %
     Качество диапазона 100.0 %
     CRC копии 2005F3DD
     Копирование... OK

Ошибок не произошло

Конец отчёта
Данный материал из частной коллекции пользователя и носит характер объявления. Если вас заинтересовала данная тема, вы можете связаться с автором сообщения и обсудить детали обмена. Для более подробной информации прочтите правила обмена.
Здесь можно посмотреть их клипы http://www.youtube.com/watch?v=Mu2PUxhgPlU&feature=search

Страница 1 из 1

new_topic  reply_topic

Текущее время: 23-Окт 15:51
Часовой пояс: GMT + 4

m Сделано с любовью PR-CY.ru Каталог webplus.info