Вход на сайт

Имя:
Пароль:

· Забыли пароль?
logo
Портал Форум
Регистрация Вход


Статистика раздачи

Размер: 356 MB | Зарегистрирован: 10 лет | Торрент скачан: 0 раз
new_topic  reply_topic

  (Pop) DJ Vital & Project 3 желания - Ля-ля-ля 2000, FLAC (image + .cue)

pic
Год выпуска: 2000
Страна: Германия
Жанр: Pop
Номер #: Beilix
Продолжительность: ~ 57 минут


Тип издания: альбом
Аудио кодек: FLAC
Тип рипа: (image + .cue)
Битрейт аудио: lossless


Трэклист:

01. Одинокий дождик
02. Капель
03. Подснежники
04. Только без тебя
05. Прости
06. Ветер
07. Позвони
08. Песни о любви
09. Не жди
10. Белый снег
11. Желтый, осенний лист (Bonus tracks)
12. Отпусти (Bonus tracks)
13. Лёля (Bonus tracks)

Код:

Exact Audio Copy V0.99 prebeta 5 from 4. May 2009

Отчёт EAC об извлечении, выполненном 9. января 2011, 4:10

DJ Vital & Project 3 желания / Ля-ля-ля

Дисковод: JLMS    XJ-HD166S   Adapter: 0  ID: 1

Режим чтения                 : Достоверность
Использование точного потока : Да
Отключение кэша аудио        : Да
Использование указателей C2  : Нет

Коррекция смещения при чтении                     : 12
Способность читать области Lead-in и Lead-out     : Нет
Заполнение пропущенных сэмплов тишиной            : Да
Удаление блоков с тишиной в начале и конце        : Нет
При вычислениях CRC использовались нулевые сэмплы : Да
Интерфейс                                         : Встроенный Win32-интерфейс для Win NT/2000

Выходной формат : Внутренние WAV-операции
Формат сэмплов  : 44.100 Гц; 16 бит; стерео

TOC извлечённого CD

     Трек |   Старт  | Длительность | Начальный сектор | Конечный сектор
    ---------------------------------------------------------------------
       1  |  0:00.00 |    4:40.62   |           0      |      21061     
       2  |  4:40.62 |    4:33.59   |       21062      |      41595     
       3  |  9:14.46 |    3:43.07   |       41596      |      58327     
       4  | 12:57.53 |    4:27.10   |       58328      |      78362     
       5  | 17:24.63 |    4:57.64   |       78363      |     100701     
       6  | 22:22.52 |    4:51.63   |      100702      |     122589     
       7  | 27:14.40 |    3:50.58   |      122590      |     139897     
       8  | 31:05.23 |    4:20.26   |      139898      |     159423     
       9  | 35:25.49 |    3:46.03   |      159424      |     176376     
      10  | 39:11.52 |    4:43.10   |      176377      |     197611     
      11  | 43:54.62 |    3:48.36   |      197612      |     214747     
      12  | 47:43.23 |    3:55.39   |      214748      |     232411     
      13  | 51:38.62 |    4:32.48   |      232412      |     252859     

Характеристики диапазона извлечения и сообщения об ошибках

Выбранный диапазон

     Имя файла C:\Temp\Образы\DJ Vital & Project 3 желания - Ля-ля-ля.wav

     Пиковый уровень 100.0 %
     Качество диапазона 99.9 %
     CRC теста 57D710F9
     CRC копии 57D710F9
     Копирование... OK

Ошибок не произошло

AccurateRip: сводка
 
Трек  1  нет в базе данных
Трек  2  нет в базе данных
Трек  3  нет в базе данных
Трек  4  нет в базе данных
Трек  5  нет в базе данных
Трек  6  нет в базе данных
Трек  7  нет в базе данных
Трек  8  нет в базе данных
Трек  9  нет в базе данных
Трек 10  нет в базе данных
Трек 11  нет в базе данных
Трек 12  нет в базе данных
Трек 13  нет в базе данных

 
Ни одного трека нет в базе AccurateRip

Конец отчёта
Данный материал из частной коллекции пользователя и носит характер объявления. Если вас заинтересовала данная тема, вы можете связаться с автором сообщения и обсудить детали обмена. Для более подробной информации прочтите правила обмена.

Страница 1 из 1

new_topic  reply_topic

Текущее время: 23-Сен 01:30
Часовой пояс: GMT + 4

m Сделано с любовью PR-CY.ru Каталог webplus.info