Вход на сайт

Имя:
Пароль:

· Забыли пароль?
logo
Портал Форум
Регистрация Вход


new_topic  reply_topic

  (Eurodance) Masterboy – Different Dreams 1994, FLAC (image + .cue)

pic
Год выпуска: 1994
Страна: Германия
Жанр: Eurodance
Номер #: 523 369-2
Продолжительность: ~ 66 минут

Тип издания: альбом
Аудио кодек: FLAC
Тип рипа: (image + .cue)
Битрейт аудио: lossless


Трэклист:

01. Waterfall (Intro)
02. Different Dreams
03. I Got To Give It Up
04. Everybody Needs Somebody (Higher And Higher Remix)
05. Is This The Love
06. Masterboy Theme (The Third)
07. And I Need You
08. Feel The Heat Of The Night
09. Do You Wanna Dance
10. No Way Out (Outro)
11. I Got To Give It Up (Guitana Mix)
12. Feel The Heat Of The Night (Shark Mix)

Код:

Exact Audio Copy V0.99 prebeta 5 from 4. May 2009

Отчёт EAC об извлечении, выполненном 22. апреля 2011, 22:50

Masterboy / Different Dreams

Дисковод: PLEXTOR DVDR   PX-800A   Adapter: 0  ID: 0

Режим чтения                 : Достоверность
Использование точного потока : Да
Отключение кэша аудио        : Да
Использование указателей C2  : Нет

Коррекция смещения при чтении                     : 48
Способность читать области Lead-in и Lead-out     : Нет
Заполнение пропущенных сэмплов тишиной            : Да
Удаление блоков с тишиной в начале и конце        : Нет
При вычислениях CRC использовались нулевые сэмплы : Да
Интерфейс                                         : Встроенный Win32-интерфейс для Win NT/2000

Выходной формат : Внутренние WAV-операции
Формат сэмплов  : 44.100 Гц; 16 бит; стерео

TOC извлечённого CD

     Трек |   Старт  | Длительность | Начальный сектор | Конечный сектор
    ---------------------------------------------------------------------
       1  |  0:00.33 |    2:58.40   |          33      |      13422     
       2  |  2:58.73 |    6:30.70   |       13423      |      42742     
       3  |  9:29.68 |    6:02.30   |       42743      |      69922     
       4  | 15:32.23 |    6:06.55   |       69923      |      97427     
       5  | 21:39.03 |    5:32.60   |       97428      |     122387     
       6  | 27:11.63 |    5:59.70   |      122388      |     149382     
       7  | 33:11.58 |    5:36.65   |      149383      |     174647     
       8  | 38:48.48 |    6:43.32   |      174648      |     204904     
       9  | 45:32.05 |    5:01.03   |      204905      |     227482     
      10  | 50:33.08 |    3:04.62   |      227483      |     241344     
      11  | 53:37.70 |    5:44.63   |      241345      |     267207     
      12  | 59:22.58 |    5:51.62   |      267208      |     293594     

Характеристики диапазона извлечения и сообщения об ошибках

Выбранный диапазон

     Имя файла C:\Temp\Образы\Masterboy - Different Dreams.wav

     Пиковый уровень 99.8 %
     Качество диапазона 99.8 %
     CRC теста C4FE4C25
     CRC копии C4FE4C25
     Копирование... OK

Ошибок не произошло

 
AccurateRip: сводка
 
Трек  1  точное извлечение (доверие 30)  [D91587ED]
Трек  2  точное извлечение (доверие 29)  [9A090D38]
Трек  3  точное извлечение (доверие 31)  [6CA87884]
Трек  4  точное извлечение (доверие 31)  [AB876C65]
Трек  5  точное извлечение (доверие 31)  [A503B2D2]
Трек  6  точное извлечение (доверие 29)  [6AAC62F2]
Трек  7  точное извлечение (доверие 29)  [3AC976A8]
Трек  8  точное извлечение (доверие 31)  [FA5A4439]
Трек  9  точное извлечение (доверие 29)  [870C3619]
Трек 10  точное извлечение (доверие 31)  [57A53E37]
Трек 11  точное извлечение (доверие 30)  [3C3F09B3]
Трек 12  точное извлечение (доверие 29)  [64F4110E]
 
Все треки извлечены точно

Конец отчёта

Страница 1 из 1

new_topic  reply_topic

Текущее время: 17-Окт 07:27
Часовой пояс: GMT + 4

m Сделано с любовью PR-CY.ru Каталог webplus.info