Вход на сайт

Имя:
Пароль:

· Забыли пароль?
logo
Портал Форум
Регистрация Вход


new_topic  reply_topic

  (Euro House) Masterboy - The Heat Of The Night 2001, FLAC (image + .cue)

pic
Год выпуска: 2001
Страна: Германия
Жанр: Euro House
Продолжительность: ~ 60 минут


Тип издания: альбом
Аудио кодек: FLAC
Тип рипа: (image + .cue)
Битрейт аудио: lossless


Трэклист:

01. Land Of Dreaming
02. Show Me Colours
03. Feel The Heat Of The Night
04. I Got To Give It Up
05. Anybody (Movin' On)
06. Dance To The Beat
07. Keep On Dancing
08. Summernight
09. Everybody Needs Somebody
10. Is This The Love
11. Do You Wanna Dance
12. Feel My Life
13. Baby Let It Be
14. Welcome To The Future Of Paradise

Код:

Exact Audio Copy V0.99 prebeta 5 from 4. May 2009

Отчёт EAC об извлечении, выполненном 20. декабря 2010, 16:06

Masterboy / the heat of the night

Дисковод: JLMS    XJ-HD166S   Adapter: 0  ID: 1

Режим чтения                 : Достоверность
Использование точного потока : Да
Отключение кэша аудио        : Да
Использование указателей C2  : Нет

Коррекция смещения при чтении                     : 12
Способность читать области Lead-in и Lead-out     : Нет
Заполнение пропущенных сэмплов тишиной            : Да
Удаление блоков с тишиной в начале и конце        : Нет
При вычислениях CRC использовались нулевые сэмплы : Да
Интерфейс                                         : Встроенный Win32-интерфейс для Win NT/2000

Выходной формат : Внутренние WAV-операции
Формат сэмплов  : 44.100 Гц; 16 бит; стерео

TOC извлечённого CD

     Трек |   Старт  | Длительность | Начальный сектор | Конечный сектор
    ---------------------------------------------------------------------
       1  |  0:00.00 |    4:04.21   |           0      |      18320     
       2  |  4:04.21 |    3:33.30   |       18321      |      34325     
       3  |  7:37.51 |    3:40.40   |       34326      |      50865     
       4  | 11:18.16 |    3:35.34   |       50866      |      67024     
       5  | 14:53.50 |    3:54.11   |       67025      |      84585     
       6  | 18:47.61 |    3:44.26   |       84586      |     101411     
       7  | 22:32.12 |    4:28.06   |      101412      |     121517     
       8  | 27:00.18 |    3:31.64   |      121518      |     137406     
       9  | 30:32.07 |    6:06.52   |      137407      |     164908     
      10  | 36:38.59 |    5:33.20   |      164909      |     189903     
      11  | 42:12.04 |    5:01.41   |      189904      |     212519     
      12  | 47:13.45 |    4:24.60   |      212520      |     232379     
      13  | 51:38.30 |    4:06.04   |      232380      |     250833     
      14  | 55:44.34 |    3:56.70   |      250834      |     268603     

Характеристики диапазона извлечения и сообщения об ошибках

Выбранный диапазон

     Имя файла C:\Temp\Образы\Masterboy - the heat of the night.wav

     Пиковый уровень 99.8 %
     Качество диапазона 100.0 %
     CRC теста 74686630
     CRC копии 74686630
     Копирование... OK

Ошибок не произошло

 
AccurateRip: сводка
 
Трек  1  точное извлечение (доверие 1)  [CE9EA782]
Трек  2  точное извлечение (доверие 1)  [B66AEFDF]
Трек  3  точное извлечение (доверие 1)  [F26E9F44]
Трек  4  точное извлечение (доверие 1)  [B9B147C2]
Трек  5  точное извлечение (доверие 1)  [04C6754E]
Трек  6  точное извлечение (доверие 1)  [F480F1B5]
Трек  7  точное извлечение (доверие 1)  [5B67FE2F]
Трек  8  точное извлечение (доверие 1)  [70F1A960]
Трек  9  точное извлечение (доверие 1)  [CB6CD9CA]
Трек 10  точное извлечение (доверие 1)  [A58540C8]
Трек 11  точное извлечение (доверие 1)  [00B2D5EA]
Трек 12  точное извлечение (доверие 1)  [7E08F751]
Трек 13  точное извлечение (доверие 1)  [FF728047]
Трек 14  точное извлечение (доверие 1)  [16CE2C50]
 
Все треки извлечены точно

Конец отчёта
Sorry, but how can download the torrent file ??
When I press the download button say this
"Cтатус запрещает скачивать торрент, либо вы не состоите в группе MuViTeam"

Well .. thanks anyway for sharing this album.
где раздающий?

фартовый рэп писал(а):

где раздающий?
недостаточное количество личеров для раздачи
MNP, а сколько, их должно быть?

фартовый рэп писал(а):

MNP, а сколько, их должно быть?
не менее 100, а то смысла в раздаче никакой
жестко однако тут люди работают!!!

фартовый рэп писал(а):

жестко однако тут люди работают!!!
жестко работает Петрик В.И, тут "дети"

Страница 1 из 1

new_topic  reply_topic

Текущее время: 04-Дек 20:03
Часовой пояс: GMT + 4

m Сделано с любовью PR-CY.ru Каталог webplus.info