Вход на сайт

Имя:
Пароль:

· Забыли пароль?
logo
Портал Форум
Регистрация Вход


Статистика раздачи

Размер: 318 MB | Зарегистрирован: 10 лет | Торрент скачан: 0 раз
new_topic  reply_topic

  (Pop) Вадим Кузема - Лейтенанты Любви 2007, FLAC (image + .cue)

pic
Год выпуска: 2007
Страна: Германия
Производитель диска: Россия
Жанр: Pop
Номер #: KTL07-715
Продолжительность: 00:44:47

Тип издания: альбом
Аудио кодек: FLAC
Тип рипа: (image + .cue)
Битрейт аудио: lossless

Треклист:

01. Goldfish
02. Юля
03. Дождевая вода
04. Берегите себя
05. Недолюбимая
06. От поэта ушла жена
07. Транзитный пассажир
08. Лейтенанты любви
09. Вчерашний кофе
10. Любовница Бога
11. Проводница
12. Не меняйте названия улиц
13. Отпусти меня (исп. Kristina Hefle) (Бонус)

Код:

Exact Audio Copy V0.99 prebeta 5 from 4. May 2009

Отчёт EAC об извлечении, выполненном 3. октября 2011, 13:56

Вадим Кузема / Лейтенанты Любви

Дисковод: HL-DT-STDVDRAM GSA-T50N   Adapter: 2  ID: 0

Режим чтения                 : Достоверность
Использование точного потока : Да
Отключение кэша аудио        : Да
Использование указателей C2  : Нет

Коррекция смещения при чтении                     : 667
Способность читать области Lead-in и Lead-out     : Нет
Заполнение пропущенных сэмплов тишиной            : Да
Удаление блоков с тишиной в начале и конце        : Нет
При вычислениях CRC использовались нулевые сэмплы : Да
Интерфейс                                         : Встроенный Win32-интерфейс для Win NT/2000

Выходной формат : Внутренние WAV-операции
Формат сэмплов  : 44.100 Гц; 16 бит; стерео

TOC извлечённого CD

     Трек |   Старт  | Длительность | Начальный сектор | Конечный сектор
    ---------------------------------------------------------------------
       1  |  0:00.00 |    3:34.14   |           0      |      16063     
       2  |  3:34.14 |    2:49.02   |       16064      |      28740     
       3  |  6:23.16 |    3:36.11   |       28741      |      44951     
       4  |  9:59.27 |    3:07.53   |       44952      |      59029     
       5  | 13:07.05 |    4:19.71   |       59030      |      78525     
       6  | 17:27.01 |    3:01.36   |       78526      |      92136     
       7  | 20:28.37 |    3:34.56   |       92137      |     108242     
       8  | 24:03.18 |    2:28.13   |      108243      |     119355     
       9  | 26:31.31 |    3:18.05   |      119356      |     134210     
      10  | 29:49.36 |    2:45.45   |      134211      |     146630     
      11  | 32:35.06 |    3:15.38   |      146631      |     161293     
      12  | 35:50.44 |    3:04.04   |      161294      |     175097     
      13  | 38:54.48 |    5:52.61   |      175098      |     201558     

Характеристики диапазона извлечения и сообщения об ошибках

Выбранный диапазон

     Имя файла C:\Users\Alex\Desktop\Вадим Кузема - Лейтенанты Любви.wav

     Пиковый уровень 99.0 %
     Качество диапазона 100.0 %
     CRC теста 67A414D4
     CRC копии 67A414D4
     Копирование... OK

Ошибок не произошло

 
AccurateRip: сводка
 
Трек  1  нет в базе данных
Трек  2  нет в базе данных
Трек  3  нет в базе данных
Трек  4  нет в базе данных
Трек  5  нет в базе данных
Трек  6  нет в базе данных
Трек  7  нет в базе данных
Трек  8  нет в базе данных
Трек  9  нет в базе данных
Трек 10  нет в базе данных
Трек 11  нет в базе данных
Трек 12  нет в базе данных
Трек 13  нет в базе данных
 
Ни одного трека нет в базе AccurateRip

Конец отчёта
Данный материал из частной коллекции пользователя. Доступ открыт только для членов группы «Меломаны». Вы можете стать её участником! Для более подробной информации прочтите правила обмена. Также вы можете связаться с автором сообщения и обсудить детали обмена.
Alex2GB Кузема не шансонье, а простой попсовик

Страница 1 из 1

new_topic  reply_topic

Текущее время: 04-Дек 20:56
Часовой пояс: GMT + 4

m Сделано с любовью PR-CY.ru Каталог webplus.info