Вход на сайт

Имя:
Пароль:

· Забыли пароль?
logo
Портал Форум
Регистрация Вход


new_topic  reply_topic

  (Euro House) Stellah - Stellah - 1997, APE (image + .cue)

pic
Год выпуска: 1997
Страна: Эстония
Жанр: Euro House
Номер #: нет (Gunnar Loho Music Management)
Продолжительность: 0:52:46

Тип издания: альбом
Аудио кодек: APE
Тип рипа: (image + .cue)
Битрейт аудио: lossless

Треклист:

  1. Õnnelik taas (dam-di-dam)
  2. Vajan sind (albumi versioon)
  3. Kuhu põgened
  4. Kaugele
  5. Miks käid mu järel
  6. Olla koos
  7. Ingel
  8. Kas meeldib
  9. Olgu siis möödas see
  10. Õnnelik taas (dam-di-caater)
  11. Vajan sind (Easy Mix)
  12. Näen sind (Remix)

Код:

Exact Audio Copy V0.99 prebeta 5 from 4. May 2009

Отчёт EAC об извлечении, выполненном 20. января 2011, 16:41

Stellah / Stellah

Дисковод: SlimtypeDVD A  DS8A3S   Adapter: 1  ID: 0

Режим чтения                 : Достоверность
Использование точного потока : Да
Отключение кэша аудио        : Нет
Использование указателей C2  : Нет

Коррекция смещения при чтении                     : 6
Способность читать области Lead-in и Lead-out     : Нет
Заполнение пропущенных сэмплов тишиной            : Да
Удаление блоков с тишиной в начале и конце        : Нет
При вычислениях CRC использовались нулевые сэмплы : Да
Интерфейс                                         : Встроенный Win32-интерфейс для Win NT/2000

Выходной формат : Внутренние WAV-операции
Формат сэмплов  : 44.100 Гц; 16 бит; стерео

TOC извлечённого CD

     Трек |   Старт  | Длительность | Начальный сектор | Конечный сектор
    ---------------------------------------------------------------------
       1  |  0:00.00 |    3:51.33   |           0      |      17357     
       2  |  3:51.33 |    5:11.57   |       17358      |      40739     
       3  |  9:03.15 |    4:30.66   |       40740      |      61055     
       4  | 13:34.06 |    3:55.03   |       61056      |      78683     
       5  | 17:29.09 |    3:48.60   |       78684      |      95843     
       6  | 21:17.69 |    3:26.44   |       95844      |     111337     
       7  | 24:44.38 |    3:55.58   |      111338      |     129020     
       8  | 28:40.21 |    4:28.51   |      129021      |     149171     
       9  | 33:08.72 |    3:28.00   |      149172      |     164771     
      10  | 36:36.72 |    5:16.55   |      164772      |     188526     
      11  | 41:53.52 |    5:10.14   |      188527      |     211790     
      12  | 47:03.66 |    5:42.74   |      211791      |     237514     

Характеристики диапазона извлечения и сообщения об ошибках

Выбранный диапазон

     Имя файла C:\Users\Дмитрий\Desktop\Stellah\Stellah - Stellah.wav

     Пиковый уровень 99.4 %
     Качество диапазона 99.9 %
     CRC теста 204230C5
     CRC копии 204230C5
     Копирование... OK

Ошибок не произошло

 
AccurateRip: сводка
 
Трек  1  нет в базе данных
Трек  2  нет в базе данных
Трек  3  нет в базе данных
Трек  4  нет в базе данных
Трек  5  нет в базе данных
Трек  6  нет в базе данных
Трек  7  нет в базе данных
Трек  8  нет в базе данных
Трек  9  нет в базе данных
Трек 10  нет в базе данных
Трек 11  нет в базе данных
Трек 12  нет в базе данных
 
Ни одного трека нет в базе AccurateRip

Конец отчёта
Релиз: pic
dimassamid это просто улет, отличный диск. Хочу себе такой
dimka007 да не то слово, это крутатень крутатенюшка
dimassamid поправь стиль на Euro House
Сделано, Шеф
Alex2GB это они у меня на днюхе выступают
Да ты что, серьезно И в каком году было?
Жаль что нелья скачать новичкам((
очень интересно друг.
The best of the best of the best
Хороша. Диск бы заиметь ...
RFT
У Alex2GB есть, ему нахер он уже не нужен, как и всё что я ему с трудом доставал. Человек слушает только качество теперь, CD это гавно.
Думаю, что евро за 100 продаст.

Страница 1 из 2

Страницы:  1, 2  След.

new_topic  reply_topic

Текущее время: 25-Фев 17:17
Часовой пояс: GMT + 4

m Сделано с любовью PR-CY.ru Каталог webplus.info