Вход на сайт

Имя:
Пароль:

· Забыли пароль?
logo
Портал Форум
Регистрация Вход


new_topic  reply_topic

  (Chanson) Кабаре-Дуэт Академия - Отпечатки пальчиков - 1998, FLAC (image + .cue) lossless

pic
Год выпуска: 1998
Страна: Россия
Жанр: Chanson
Номер #: Akdm RS-569
Продолжительность: 0:36:01

Тип издания: альбом
Аудио кодек: FLAC
Тип рипа: (image + .cue)
Битрейт аудио: lossless

Треклист:

  1. На старом кладбище
  2. Милый Саша
  3. На белой лодочке
  4. Татуировочка
  5. Три дня свидания
  6. А я люблю студентов
  7. Соня, Золотая Ручка
  8. Письмо с Колымы
  9. Журавли
  10. Отпечатки пальчиков
  11. В кабак заехал на стрелу

Код:

Exact Audio Copy V0.99 prebeta 5 from 4. May 2009

Отчёт EAC об извлечении, выполненном 17. ноября 2013, 0:05

Кабаре-Дуэт Академия / Отпечатки пальчиков

Дисковод: TSSTcorpCDDVDW SH-S223B   Adapter: 4  ID: 2

Режим чтения                 : Достоверность
Использование точного потока : Да
Отключение кэша аудио        : Да
Использование указателей C2  : Нет

Коррекция смещения при чтении                     : 6
Способность читать области Lead-in и Lead-out     : Нет
Заполнение пропущенных сэмплов тишиной            : Да
Удаление блоков с тишиной в начале и конце        : Нет
При вычислениях CRC использовались нулевые сэмплы : Да
Интерфейс                                         : Встроенный Win32-интерфейс для Win NT/2000

Выходной формат : Внутренние WAV-операции
Формат сэмплов  : 44.100 Гц; 16 бит; стерео

TOC извлечённого CD

     Трек |   Старт  | Длительность | Начальный сектор | Конечный сектор
    ---------------------------------------------------------------------
       1  |  0:00.01 |    3:28.00   |           1      |      15600     
       2  |  3:28.01 |    2:39.61   |       15601      |      27586     
       3  |  6:07.62 |    3:53.37   |       27587      |      45098     
       4  | 10:01.24 |    2:44.00   |       45099      |      57398     
       5  | 12:45.24 |    4:14.37   |       57399      |      76485     
       6  | 16:59.61 |    2:51.00   |       76486      |      89310     
       7  | 19:50.61 |    3:05.00   |       89311      |     103185     
       8  | 22:55.61 |    2:42.00   |      103186      |     115335     
       9  | 25:37.61 |    3:54.01   |      115336      |     132886     
      10  | 29:31.62 |    2:42.00   |      132887      |     145036     
      11  | 32:13.62 |    3:47.73   |      145037      |     162134     

Характеристики диапазона извлечения и сообщения об ошибках

Выбранный диапазон

     Имя файла K:\Русская Поп-музыка\Кабаре-Дуэт Академия (lossless)\Кабаре-Дуэт Академия - Отпечатки пальчиков (1998)\Кабаре-Дуэт Академия - Отпечатки пальчиков.wav

     Пиковый уровень 95.4 %
     Качество диапазона 100.0 %
     CRC теста E6D28139
     CRC копии E6D28139
     Копирование... OK

Ошибок не произошло

 
AccurateRip: сводка
 
Трек  1  точное извлечение (доверие 2)  [F9B19002]
Трек  2  точное извлечение (доверие 2)  [706D31C0]
Трек  3  точное извлечение (доверие 2)  [F5431E08]
Трек  4  точное извлечение (доверие 2)  [A1B9938C]
Трек  5  точное извлечение (доверие 2)  [AC577B0C]
Трек  6  точное извлечение (доверие 2)  [54096D24]
Трек  7  точное извлечение (доверие 2)  [F5F15DB6]
Трек  8  точное извлечение (доверие 2)  [7AF3D4CA]
Трек  9  точное извлечение (доверие 2)  [8DB36E71]
Трек 10  точное извлечение (доверие 2)  [CCA5699C]
Трек 11  точное извлечение (доверие 2)  [6ADBA9F6]
 
Все треки извлечены точно

Конец отчёта

Страница 1 из 1

new_topic  reply_topic

Текущее время: 28-Ноя 00:32
Часовой пояс: GMT + 4

m Сделано с любовью PR-CY.ru Каталог webplus.info