Вход на сайт

Имя:
Пароль:

· Забыли пароль?
logo
Портал Форум
Регистрация Вход


new_topic  reply_topic

  (Pop) Союз 47, non-stop - 2010, FLAC (image + .cue)

pic
Год выпуска: 2010
Страна: Россия
Производитель: Литва
Жанр: Pop
Номер #: RU-1427 (PRIORO Įrašų Grupė) официальное балтийское издание
Продолжительность: 1:18:53

Тип издания: сборник
Аудио кодек: FLAC
Тип рипа: (image + .cue)
Битрейт аудио: lossless

Треклист:

  1. Верка Сердючка – Дольче Габбана
  2. Отпетые мошенники - Это моё
  3. Вера Брежнева – Любовь спасет мир
  4. Евро & Эд Р.Э.Й. Родионов - Огни большого города (DJ Fisun Russian-style remix)
  5. Валерия - Птица-разлука
  6. Дискотека Авария - Звезда
  7. Пропаганда – До луны на метро
  8. Ай-Q - Ямайка
  9. Uma2rmaH – В этом городе все сумасшедшие
  10. Аслан – Все начнем по новой (RMX Radu Sirbu)
  11. NikitA - Верёвки
  12. Валерий Меладзе – Небеса
  13. А-Студио – Fashion Girl
  14. Градусы – Я больше никогда
  15. Стас Михайлов - Живи и знай
  16. Денис Майданов - Пуля
  17. Русский размер - Кино
  18. Фабрика feat. Radu Sirbu - Я тебя зацелую (Radio Sirbu Remix)
  19. Хаки – 20:00 (Remix)
  20. Мураками - 0 км
  21. Юля Ковальчук - Прямо в сердце
  22. Найк Борзов - Жемчужина
  23. СOUPLE – Километры любви
  24. Год змеи - 2000$ (avia version)
  25. Михаил Шуфутинский и Варвара Комиссарова - Новый год в кабине самолёта

Код:

Exact Audio Copy V0.99 prebeta 5 from 4. May 2009

Отчёт EAC об извлечении, выполненном 22. сентября 2011, 21:24

Various / Союз-47

Дисковод: TSSTcorpCDDVDW SH-S223B   Adapter: 2  ID: 0

Режим чтения                 : Достоверность
Использование точного потока : Да
Отключение кэша аудио        : Да
Использование указателей C2  : Нет

Коррекция смещения при чтении                     : 6
Способность читать области Lead-in и Lead-out     : Нет
Заполнение пропущенных сэмплов тишиной            : Да
Удаление блоков с тишиной в начале и конце        : Нет
При вычислениях CRC использовались нулевые сэмплы : Да
Интерфейс                                         : Встроенный Win32-интерфейс для Win NT/2000

Выходной формат : Внутренние WAV-операции
Формат сэмплов  : 44.100 Гц; 16 бит; стерео

TOC извлечённого CD

     Трек |   Старт  | Длительность | Начальный сектор | Конечный сектор
    ---------------------------------------------------------------------
       1  |  0:00.00 |    4:15.62   |           0      |      19186     
       2  |  4:15.62 |    3:25.73   |       19187      |      34634     
       3  |  7:41.60 |    3:19.24   |       34635      |      49583     
       4  | 11:01.09 |    2:48.00   |       49584      |      62183     
       5  | 13:49.09 |    2:47.44   |       62184      |      74752     
       6  | 16:36.53 |    3:22.66   |       74753      |      89968     
       7  | 19:59.44 |    3:32.55   |       89969      |     105923     
       8  | 23:32.24 |    3:34.10   |      105924      |     121983     
       9  | 27:06.34 |    3:24.31   |      121984      |     137314     
      10  | 30:30.65 |    3:05.43   |      137315      |     151232     
      11  | 33:36.33 |    3:19.64   |      151233      |     166221     
      12  | 36:56.22 |    3:44.52   |      166222      |     183073     
      13  | 40:40.74 |    3:28.15   |      183074      |     198688     
      14  | 44:09.14 |    3:41.09   |      198689      |     215272     
      15  | 47:50.23 |    2:45.63   |      215273      |     227710     
      16  | 50:36.11 |    3:26.25   |      227711      |     243185     
      17  | 54:02.36 |    2:39.57   |      243186      |     255167     
      18  | 56:42.18 |    3:18.41   |      255168      |     270058     
      19  | 60:00.59 |    3:06.05   |      270059      |     284013     
      20  | 63:06.64 |    2:21.01   |      284014      |     294589     
      21  | 65:27.65 |    2:46.00   |      294590      |     307039     
      22  | 68:13.65 |    2:24.64   |      307040      |     317903     
      23  | 70:38.54 |    3:11.03   |      317904      |     332231     
      24  | 73:49.57 |    2:10.74   |      332232      |     342055     
      25  | 76:00.56 |    2:53.16   |      342056      |     355046     

Характеристики диапазона извлечения и сообщения об ошибках

Выбранный диапазон

     Имя файла M:\Сборники\Сборники СОЮЗ\Союз-47 (2010) lossless, non-stop\Союз-47.wav

     Пиковый уровень 96.6 %
     Качество диапазона 100.0 %
     CRC теста 0FE86BBB
     CRC копии 0FE86BBB
     Копирование... OK

Ошибок не произошло

 
AccurateRip: сводка
 
Трек  1  точность не определена (достоверность 1)  [0C6B6162], AccurateRip вернул [F8A9C0AE]
Трек  2  точность не определена (достоверность 1)  [3665E3AA], AccurateRip вернул [97B61C51]
Трек  3  точность не определена (достоверность 1)  [CAE0CA02], AccurateRip вернул [6E647E53]
Трек  4  точность не определена (достоверность 1)  [5F5EDD27], AccurateRip вернул [85DA68F7]
Трек  5  точность не определена (достоверность 1)  [FCDC86F3], AccurateRip вернул [CBD96892]
Трек  6  точность не определена (достоверность 1)  [3AE9C355], AccurateRip вернул [B9E7E849]
Трек  7  точность не определена (достоверность 1)  [311DB446], AccurateRip вернул [22879B18]
Трек  8  точность не определена (достоверность 1)  [4DFC9E5A], AccurateRip вернул [BD258ED7]
Трек  9  точность не определена (достоверность 1)  [7A34D617], AccurateRip вернул [6032163F]
Трек 10  точность не определена (достоверность 1)  [9F5008C7], AccurateRip вернул [786BC586]
Трек 11  точность не определена (достоверность 1)  [4A56FF30], AccurateRip вернул [84148620]
Трек 12  точность не определена (достоверность 1)  [9735B468], AccurateRip вернул [0ACECCD9]
Трек 13  точность не определена (достоверность 1)  [CAB7BE2E], AccurateRip вернул [2B1FD2F2]
Трек 14  точность не определена (достоверность 1)  [BF5D7C45], AccurateRip вернул [7B2931E6]
Трек 15  точность не определена (достоверность 1)  [194DAA68], AccurateRip вернул [6CE1BF95]
Трек 16  точность не определена (достоверность 1)  [1952D2A4], AccurateRip вернул [5DA1CAF1]
Трек 17  точность не определена (достоверность 1)  [1C6482FD], AccurateRip вернул [754DABB4]
Трек 18  точность не определена (достоверность 1)  [6CDF500D], AccurateRip вернул [39F03E28]
Трек 19  точность не определена (достоверность 1)  [634E4AD4], AccurateRip вернул [04F5E726]
Трек 20  точность не определена (достоверность 1)  [1641D325], AccurateRip вернул [29F4D404]
Трек 21  точность не определена (достоверность 1)  [76368C03], AccurateRip вернул [B70A8DEB]
Трек 22  точность не определена (достоверность 1)  [BE4FFB02], AccurateRip вернул [C6D3CED8]
Трек 23  точность не определена (достоверность 1)  [B0A8A871], AccurateRip вернул [03B6544E]
Трек 24  точность не определена (достоверность 1)  [E543372A], AccurateRip вернул [A33B6DA0]
Трек 25  точность не определена (достоверность 1)  [195CA747], AccurateRip вернул [2E7D86FD]
 
Ни один трек не прошёл проверки на точность
В вашей базе может быть иной вариант штамповки диска

Конец отчёта
Релиз: pic


Страница 1 из 1

new_topic  reply_topic

Текущее время: 27-Окт 04:12
Часовой пояс: GMT + 4

m Сделано с любовью PR-CY.ru Каталог webplus.info