Вход на сайт

Имя:
Пароль:

· Забыли пароль?
logo
Портал Форум
Регистрация Вход


new_topic  reply_topic

  (Pop) Hit Me Vol.6 - 2003, FLAC (image + .cue)

pic
Год выпуска: 2003
Страна: Эстония
Жанр: Pop
Номер #: 981510 (MT Holding Ltd)
Продолжительность: 0:58:48

Тип издания: сборник
Аудио кодек: FLAC
Тип рипа: (image + .cue)
Битрейт аудио: lossless

Треклист:
  1. Sugababes - Hole in the Head
  2. Lumidee - Never Leave You (Uh Oooh, Uh Oooh)
  3. Girls Aloud - Girls On Film
  4. Safri Duo - Fallin' High
  5. Paul Oakenfold - Hypnotised [Kowalski Radio edit]
  6. Da Buzz - Tonights the Night
  7. Lene - It's Your Duty
  8. Dr. Alban - Work Work
  9. Culture Beat - Mr. Vain Recall
  10. Sonique - Alive
  11. Craig David - Spanish
  12. Becky Bealing - Getaway
  13. Various - We Will Rock You [Remix 2003]
  14. Lisa Scott-Lee - Too Far Gone
  15. Tanja - He's the One
  16. Dj Ötzi - Burger Dance [International remix]
  17. Triple 8 - Give Me a Reason

Код:

Exact Audio Copy V0.99 prebeta 5 from 4. May 2009

Отчёт EAC об извлечении, выполненном 17. декабря 2011, 20:32

Various / Hit Me vol. 6

Дисковод: TSSTcorpCDDVDW SH-S223B   Adapter: 2  ID: 0

Режим чтения                 : Достоверность
Использование точного потока : Да
Отключение кэша аудио        : Да
Использование указателей C2  : Нет

Коррекция смещения при чтении                     : 6
Способность читать области Lead-in и Lead-out     : Нет
Заполнение пропущенных сэмплов тишиной            : Да
Удаление блоков с тишиной в начале и конце        : Нет
При вычислениях CRC использовались нулевые сэмплы : Да
Интерфейс                                         : Встроенный Win32-интерфейс для Win NT/2000

Выходной формат : Внутренние WAV-операции
Формат сэмплов  : 44.100 Гц; 16 бит; стерео

TOC извлечённого CD

     Трек |   Старт  | Длительность | Начальный сектор | Конечный сектор
    ---------------------------------------------------------------------
       1  |  0:00.00 |    3:39.55   |           0      |      16479     
       2  |  3:39.55 |    3:08.00   |       16480      |      30579     
       3  |  6:47.55 |    3:43.62   |       30580      |      47366     
       4  | 10:31.42 |    3:19.13   |       47367      |      62304     
       5  | 13:50.55 |    3:51.24   |       62305      |      79653     
       6  | 17:42.04 |    3:18.59   |       79654      |      94562     
       7  | 21:00.63 |    3:07.45   |       94563      |     108632     
       8  | 24:08.33 |    3:07.52   |      108633      |     122709     
       9  | 27:16.10 |    3:31.40   |      122710      |     138574     
      10  | 30:47.50 |    3:52.29   |      138575      |     156003     
      11  | 34:40.04 |    3:37.29   |      156004      |     172307     
      12  | 38:17.33 |    3:52.73   |      172308      |     189780     
      13  | 42:10.31 |    2:31.43   |      189781      |     201148     
      14  | 44:41.74 |    3:34.13   |      201149      |     217211     
      15  | 48:16.12 |    3:47.65   |      217212      |     234301     
      16  | 52:04.02 |    3:19.01   |      234302      |     249227     
      17  | 55:23.03 |    3:25.57   |      249228      |     264659     

Характеристики диапазона извлечения и сообщения об ошибках

Выбранный диапазон

     Имя файла M:\Сборники\Hit Me vol. 6\Hit Me vol. 6.wav

     Пиковый уровень 97.7 %
     Качество диапазона 100.0 %
     CRC теста 385B5D1E
     CRC копии 385B5D1E
     Копирование... OK

Ошибок не произошло

 
AccurateRip: сводка
 
Трек  1  нет в базе данных
Трек  2  нет в базе данных
Трек  3  нет в базе данных
Трек  4  нет в базе данных
Трек  5  нет в базе данных
Трек  6  нет в базе данных
Трек  7  нет в базе данных
Трек  8  нет в базе данных
Трек  9  нет в базе данных
Трек 10  нет в базе данных
Трек 11  нет в базе данных
Трек 12  нет в базе данных
Трек 13  нет в базе данных
Трек 14  нет в базе данных
Трек 15  нет в базе данных
Трек 16  нет в базе данных
Трек 17  нет в базе данных
 
Ни одного трека нет в базе AccurateRip

Конец отчёта
Релиз: pic
Релиз открыт для всех участников группы "Меломаны"!
Приятного прослушивания!

CD выставлен на продажу здесь: http://muviteam.com/forum/viewtopic.php?t=10484
Купившему - в подарок первую часть сборника БЕСПЛАТНО!
cool

Страница 1 из 1

new_topic  reply_topic

Текущее время: 25-Янв 10:17
Часовой пояс: GMT + 4

m Сделано с любовью PR-CY.ru Каталог webplus.info