Вход на сайт

Имя:
Пароль:

· Забыли пароль?
logo
Портал Форум
Регистрация Вход


new_topic  reply_topic

  (Pop) Сборник эстонской музыки Vol.1 - 2012, FLAC (image + .cue) [Сборник от команды MuViTeam]

pic
Год выпуска: 2012
Жанр: Pop, Euro-House
Продолжительность: 1:01:57
Номер #: MVT-004 (MuViTeam Compilation Promo)

Тип контента: сборник
Аудио кодек: FLAC
Тип рипа: (image + .cue)
Битрейт аудио: lossless

  1. Moon Taxi - Moonwalk (3:42)
  2. Hylene - Täna rikun ma reegleid (3:43)
  3. Jüri Homenja - Marilyn (3:55)
  4. Carin - Hearts Of Ice (3:37)
  5. Vanilla Ninja - I Know (Radio Edit) (3:17)
  6. Mari-Leen - Suure linna inglid (4:07)
  7. Mr. Happyman - Las mina proovin siis ka (Remix) (3:42)
  8. Cherryland - Loomulik blondiin (3:39)
  9. Stellah - Miks käid mu järel (3:48)
  10. Mari Liis - II Dimensioon (feat. Caater) (3:31)
  11. Code One - Vikerkaar (4:45)
  12. Push Up - St. Tropez (4:12)
  13. Heleri - Ööralli (Sõidan Sinuga) (4:01)
  14. Estin - Lõpu algus (3:45)
  15. B-Jeans - Kui tahad mind (3:16)
  16. Niki - Megamix (4:51)

Код:

Exact Audio Copy V0.99 prebeta 5 from 4. May 2009

Отчёт EAC об извлечении, выполненном 6. января 2012, 3:56

Various / Сборник эстонской музыки Vol.1

Дисковод: TSSTcorpCDDVDW SH-S223B   Adapter: 2  ID: 0

Режим чтения                 : Достоверность
Использование точного потока : Да
Отключение кэша аудио        : Да
Использование указателей C2  : Нет

Коррекция смещения при чтении                     : 6
Способность читать области Lead-in и Lead-out     : Нет
Заполнение пропущенных сэмплов тишиной            : Да
Удаление блоков с тишиной в начале и конце        : Нет
При вычислениях CRC использовались нулевые сэмплы : Да
Интерфейс                                         : Встроенный Win32-интерфейс для Win NT/2000

Выходной формат : Внутренние WAV-операции
Формат сэмплов  : 44.100 Гц; 16 бит; стерео

TOC извлечённого CD

     Трек |   Старт  | Длительность | Начальный сектор | Конечный сектор
    ---------------------------------------------------------------------
       1  |  0:00.00 |    3:42.69   |           0      |      16718     
       2  |  3:42.69 |    3:43.08   |       16719      |      33451     
       3  |  7:26.02 |    3:55.20   |       33452      |      51096     
       4  | 11:21.22 |    3:37.05   |       51097      |      67376     
       5  | 14:58.27 |    3:17.35   |       67377      |      82186     
       6  | 18:15.62 |    4:07.47   |       82187      |     100758     
       7  | 22:23.34 |    3:42.00   |      100759      |     117408     
       8  | 26:05.34 |    3:39.01   |      117409      |     133834     
       9  | 29:44.35 |    3:48.60   |      133835      |     150994     
      10  | 33:33.20 |    3:31.48   |      150995      |     166867     
      11  | 37:04.68 |    4:45.55   |      166868      |     188297     
      12  | 41:50.48 |    4:12.42   |      188298      |     207239     
      13  | 46:03.15 |    4:01.23   |      207240      |     225337     
      14  | 50:04.38 |    3:45.12   |      225338      |     242224     
      15  | 53:49.50 |    3:16.06   |      242225      |     256930     
      16  | 57:05.56 |    4:51.61   |      256931      |     278816     

Характеристики диапазона извлечения и сообщения об ошибках

Выбранный диапазон

     Имя файла M:\Эстонская музыка\Сборники\Сборник эстонской музыки Vol.1 (2012)\Сборник эстонской музыки Vol.1.wav

     Пиковый уровень 99.7 %
     Качество диапазона 100.0 %
     CRC теста 8E86E296
     CRC копии 8E86E296
     Копирование... OK

Ошибок не произошло

 
AccurateRip: сводка
 
Трек  1  нет в базе данных
Трек  2  нет в базе данных
Трек  3  нет в базе данных
Трек  4  нет в базе данных
Трек  5  нет в базе данных
Трек  6  нет в базе данных
Трек  7  нет в базе данных
Трек  8  нет в базе данных
Трек  9  нет в базе данных
Трек 10  нет в базе данных
Трек 11  нет в базе данных
Трек 12  нет в базе данных
Трек 13  нет в базе данных
Трек 14  нет в базе данных
Трек 15  нет в базе данных
Трек 16  нет в базе данных
 
Ни одного трека нет в базе AccurateRip

Конец отчёта
Обложки:
pic
pic
Сборник эстонской музыки от команды MuViTeam!
Только отборные композиции! Только lossless! Никакого фарша!
Открыто для всех членов группы "Меломаны"! Приятного прослушивания!
Оставляйте комментарии!


Релиз: pic


pic   Скачать мегамикс сборника в WAV   pic   <<-- доступно для всех, жми ссылку!
или слушать прямо СЕЙЧАС   picNon-Stoppic
00:00 - Estin - Lopu algus
01:26 - Moon Taxi - Moonwalk
02:27 - Hylene - Tana rikun ma reegleid
03:16 - Stellah - Miks kaid mu jarel
04:38 - Juri Homenja - Marilyn
05:32 - Push Up - St. Tropez
07:30 - Mr. Happyman - Las mina proovin siis ka (Remix)
08:28 - Mari Liis - II Dimensioon (feat. Caater)
09:13 - Carin - Hearts Of Ice
10:24 - Mari-Leen - Suure linna inglid
11:23 - Code One - Vikerkaar
12:18 - Cherryland - Loomulik blondiin
13:33 - Heleri - Ooralli (Soidan Sinuga)
14:42 - B-Jeans - Kui tahad mind
15:25 - Vanilla Ninja - I Know (Radio Edit)
Представляю вашему вниманию сборник популярной музыки эстонских исполнителей собственной компиляции. По известным всем причинам, релиз доступен не для каждого, а только для членов группы "Меломаны". Есть повод вступить в группу, вперёд!

Сборник был сделан с душой и состоит только из отборных композиций! Также прошу, не проходите мимо мегамикса, я старался. Мегамикс открыт для всех желающий в lossless, качайте и наслаждайтесь! Ссылки в первом посте.

Приятного прослушивания! Жду отзывов!
dimassamid спасибо! Сборник действительно заслуживает похвалы, отличная работа!
по поводу мегамикса (частоты тут не главное - тут интересна верхняя часть - уровень записи)
pic
Ну разброс по уровням после середины бросается в глаза, на слух он собственно тоже заметен, желательно в миксах выравнивать уровень - это значительно улучшает восприятие микса.
По поводу собственно миксовки - :-) - получились удачные переходы на 3-10, 12-15 и 13-30. Это на самом деле очень неплохо...Я б еще посоветовал бы порядок треков на будущее выбирать что бы соседние треки отличались минимально по темпу.
Данный микс не является профессиональным, я никогда не занимался миксовкой и думаю что врятли займусь когда-либо в будущем. Это всего лишь небольшая работа по нарезке треков в аудиоредакторе, которая была создана в первую очередь для ознакомления с данными композициями. Наверное, нужно было потратить немного больше времени и допилить микс до соответствующего уровня, но основная цель заключалась всё-таки в создании сборника и ознакомлении слушателей с частичкой эстонской поп-музыки, поскольку её мало кто знает и слушает. В любом случае, спасибо за конструктивную критику и советы, учту на будущее!

Страница 1 из 1

new_topic  reply_topic

Текущее время: 08-Авг 21:42
Часовой пояс: GMT + 4

m Сделано с любовью PR-CY.ru Каталог webplus.info