Вход на сайт

Имя:
Пароль:

· Забыли пароль?
logo
Портал Форум
Регистрация Вход


new_topic  reply_topic

  (Pop) Союз 37, non-stop - 2005, FLAC (image + .cue)

pic
Год выпуска: 2005
Страна: Россия
Жанр: Pop
Номер #: SZCD 3477-05 (Студия "СОЮЗ")
Продолжительность: 1:17:47

Тип издания: сборник
Аудио кодек: FLAC
Тип рипа: (image + .cue)
Битрейт аудио: lossless

Треклист:
  1. Фабрика - Не виноватая я
  2. Дискотека Авария и Олег Меньшиков - Страдания
  3. Arash feat. Блестящие - Восточная сказка
  4. Юлия Савичева - Если в сердце живет любовь
  5. X-Mode - Что? Где? Когда?
  6. Шпильки - Маленькая штучка
  7. Максим Галкин, дуэт NeoMaster - Песня про Красную Шапочку
  8. Гости из будущего - Я рисую
  9. DJ Грув - Добро пожаловать, или Посторонним вход воспрещен
  10. Массква - 7 этаж
  11. Дмитрий Маликов - С чистого листа
  12. Надежда Кадышева и "Золотое кольцо" - Плывет веночек
  13. Маршал - Города - поезда
  14. Жасмин - Тебе понравится
  15. Uma2rman - Ты ушла
  16. Чили - Преступление
  17. Максим Галкин - Сон о любви
  18. In/Out - Международная панорама
  19. Братья Грим - Кустурица
  20. Лолита Милявская - Пошлю его на…
  21. Street Frog - Popcorn
  22. Алексин и Со - А-Миша!?
  23. Антон Зацепин - Улетаю
  24. Чай вдвоем - Милая (remix)
  25. Karnival Project & Николай Семенов - Тают льдинки

Код:

Exact Audio Copy V0.99 prebeta 5 from 4. May 2009

Отчёт EAC об извлечении, выполненном 29. января 2012, 18:24

Various Artists / Союз-37

Дисковод: TSSTcorpCDDVDW SH-S223B   Adapter: 2  ID: 0

Режим чтения                 : Достоверность
Использование точного потока : Да
Отключение кэша аудио        : Да
Использование указателей C2  : Нет

Коррекция смещения при чтении                     : 6
Способность читать области Lead-in и Lead-out     : Нет
Заполнение пропущенных сэмплов тишиной            : Да
Удаление блоков с тишиной в начале и конце        : Нет
При вычислениях CRC использовались нулевые сэмплы : Да
Интерфейс                                         : Встроенный Win32-интерфейс для Win NT/2000

Выходной формат : Внутренние WAV-операции
Формат сэмплов  : 44.100 Гц; 16 бит; стерео

TOC извлечённого CD

     Трек |   Старт  | Длительность | Начальный сектор | Конечный сектор
    ---------------------------------------------------------------------
       1  |  0:00.00 |    3:51.06   |           0      |      17330     
       2  |  3:51.06 |    3:17.00   |       17331      |      32105     
       3  |  7:08.06 |    3:23.26   |       32106      |      47356     
       4  | 10:31.32 |    3:02.43   |       47357      |      61049     
       5  | 13:34.00 |    3:20.56   |       61050      |      76105     
       6  | 16:54.56 |    3:23.44   |       76106      |      91374     
       7  | 20:18.25 |    3:09.42   |       91375      |     105591     
       8  | 23:27.67 |    2:32.56   |      105592      |     117047     
       9  | 26:00.48 |    2:36.07   |      117048      |     128754     
      10  | 28:36.55 |    2:47.68   |      128755      |     141347     
      11  | 31:24.48 |    3:23.23   |      141348      |     156595     
      12  | 34:47.71 |    2:13.07   |      156596      |     166577     
      13  | 37:01.03 |    3:14.26   |      166578      |     181153     
      14  | 40:15.29 |    2:50.47   |      181154      |     193950     
      15  | 43:06.01 |    3:32.50   |      193951      |     209900     
      16  | 46:38.51 |    3:15.37   |      209901      |     224562     
      17  | 49:54.13 |    3:00.54   |      224563      |     238116     
      18  | 52:54.67 |    3:02.31   |      238117      |     251797     
      19  | 55:57.23 |    2:48.38   |      251798      |     264435     
      20  | 58:45.61 |    2:16.74   |      264436      |     274709     
      21  | 61:02.60 |    2:44.05   |      274710      |     287014     
      22  | 63:46.65 |    3:19.33   |      287015      |     301972     
      23  | 67:06.23 |    3:11.50   |      301973      |     316347     
      24  | 70:17.73 |    3:57.24   |      316348      |     334146     
      25  | 74:15.22 |    3:32.16   |      334147      |     350062     

Характеристики диапазона извлечения и сообщения об ошибках

Выбранный диапазон

     Имя файла M:\Сборники\Сборники СОЮЗ\Союз-37 (2005) lossless, non-stop\Союз-37.wav

     Пиковый уровень 98.9 %
     Качество диапазона 99.9 %
     CRC теста DA3766BD
     CRC копии DA3766BD
     Копирование... OK

Ошибок не произошло

 
AccurateRip: сводка
 
Трек  1  нет в базе данных
Трек  2  нет в базе данных
Трек  3  нет в базе данных
Трек  4  нет в базе данных
Трек  5  нет в базе данных
Трек  6  нет в базе данных
Трек  7  нет в базе данных
Трек  8  нет в базе данных
Трек  9  нет в базе данных
Трек 10  нет в базе данных
Трек 11  нет в базе данных
Трек 12  нет в базе данных
Трек 13  нет в базе данных
Трек 14  нет в базе данных
Трек 15  нет в базе данных
Трек 16  нет в базе данных
Трек 17  нет в базе данных
Трек 18  нет в базе данных
Трек 19  нет в базе данных
Трек 20  нет в базе данных
Трек 21  нет в базе данных
Трек 22  нет в базе данных
Трек 23  нет в базе данных
Трек 24  нет в базе данных
Трек 25  нет в базе данных
 
Ни одного трека нет в базе AccurateRip

Конец отчёта
Релиз: pic


Страница 1 из 1

new_topic  reply_topic

Текущее время: 27-Окт 04:52
Часовой пояс: GMT + 4

m Сделано с любовью PR-CY.ru Каталог webplus.info