Вход на сайт

Имя:
Пароль:

· Забыли пароль?
logo
Портал Форум
Регистрация Вход


new_topic  reply_topic

  (Pop) Союз 39, non-stop - 2006, FLAC (image + .cue)

pic
Год выпуска: 2006
Страна: Россия
Жанр: Pop
Номер #: SZCD 4193-06 (Студия "СОЮЗ")
Продолжительность: 1:17:48

Тип издания: сборник
Аудио кодек: FLAC
Тип рипа: (image + .cue)
Битрейт аудио: lossless

Треклист:
  1. Дискотека Авария & Жанна Фриске - Малинки
  2. Дима Билан - Невозможное возможно
  3. Вера Сердючка - Бери всё (что у меня есть)
  4. Чи-Ли - Маки
  5. Валерия - От разлуки до любви
  6. VIA ЧАППА#1 - Единички
  7. Анна Седокова - Звоночек
  8. Стоматолог и Фисун - Гном
  9. Юлия Савичева - Мало
  10. Monster Dj'S - Joe Dassin рулит
  11. Диамант - Там на море
  12. Тутси - Незамужняя
  13. Юра Шатунов - Запиши мой голос на кассету
  14. Лиза - Лиза
  15. DJ Грув & Aлиса Фрейндлих - Погода
  16. Город 312 - Фонари
  17. Штар & Л.Успенская - Лодочка
  18. Блестящие - Агент 007
  19. Слава - Восьмерка на нули
  20. Белый Орел - Налево-налево
  21. Лолита - Ты мой , я - твоя
  22. Сценакардия - Времена года
  23. Алена Апина - Самолет на Москву
  24. Банда Андрюха - Конверт с цветочком
  25. Джанго - Гуляй, гроза

Код:

Exact Audio Copy V0.99 prebeta 5 from 4. May 2009

Отчёт EAC об извлечении, выполненном 29. января 2012, 20:15

Various / Союз-39

Дисковод: TSSTcorpCDDVDW SH-S223B   Adapter: 2  ID: 0

Режим чтения                 : Достоверность
Использование точного потока : Да
Отключение кэша аудио        : Да
Использование указателей C2  : Нет

Коррекция смещения при чтении                     : 6
Способность читать области Lead-in и Lead-out     : Нет
Заполнение пропущенных сэмплов тишиной            : Да
Удаление блоков с тишиной в начале и конце        : Нет
При вычислениях CRC использовались нулевые сэмплы : Да
Интерфейс                                         : Встроенный Win32-интерфейс для Win NT/2000

Выходной формат : Внутренние WAV-операции
Формат сэмплов  : 44.100 Гц; 16 бит; стерео

TOC извлечённого CD

     Трек |   Старт  | Длительность | Начальный сектор | Конечный сектор
    ---------------------------------------------------------------------
       1  |  0:00.00 |    4:09.14   |           0      |      18688     
       2  |  4:09.14 |    3:03.48   |       18689      |      32461     
       3  |  7:12.62 |    3:19.33   |       32462      |      47419     
       4  | 10:32.20 |    3:18.17   |       47420      |      62286     
       5  | 13:50.37 |    3:33.73   |       62287      |      78334     
       6  | 17:24.35 |    2:50.66   |       78335      |      91150     
       7  | 20:15.26 |    3:41.12   |       91151      |     107737     
       8  | 23:56.38 |    3:48.50   |      107738      |     124887     
       9  | 27:45.13 |    3:53.57   |      124888      |     142419     
      10  | 31:38.70 |    2:50.19   |      142420      |     155188     
      11  | 34:29.14 |    3:42.66   |      155189      |     171904     
      12  | 38:12.05 |    2:53.54   |      171905      |     184933     
      13  | 41:05.59 |    3:22.11   |      184934      |     200094     
      14  | 44:27.70 |    3:19.05   |      200095      |     215024     
      15  | 47:47.00 |    2:34.47   |      215025      |     226621     
      16  | 50:21.47 |    2:45.18   |      226622      |     239014     
      17  | 53:06.65 |    3:42.42   |      239015      |     255706     
      18  | 56:49.32 |    2:28.25   |      255707      |     266831     
      19  | 59:17.57 |    2:51.47   |      266832      |     279703     
      20  | 62:09.29 |    2:23.11   |      279704      |     290439     
      21  | 64:32.40 |    2:22.06   |      290440      |     301095     
      22  | 66:54.46 |    2:37.08   |      301096      |     312878     
      23  | 69:31.54 |    2:22.18   |      312879      |     323546     
      24  | 71:53.72 |    2:21.44   |      323547      |     334165     
      25  | 74:15.41 |    3:33.17   |      334166      |     350157     

Характеристики диапазона извлечения и сообщения об ошибках

Выбранный диапазон

     Имя файла M:\Сборники\Сборники СОЮЗ\Союз-39 (2006) lossless, non-stop\Союз-39.wav

     Пиковый уровень 96.6 %
     Качество диапазона 99.9 %
     CRC теста 7B86969B
     CRC копии 7B86969B
     Копирование... OK

Ошибок не произошло

 
AccurateRip: сводка
 
Трек  1  нет в базе данных
Трек  2  нет в базе данных
Трек  3  нет в базе данных
Трек  4  нет в базе данных
Трек  5  нет в базе данных
Трек  6  нет в базе данных
Трек  7  нет в базе данных
Трек  8  нет в базе данных
Трек  9  нет в базе данных
Трек 10  нет в базе данных
Трек 11  нет в базе данных
Трек 12  нет в базе данных
Трек 13  нет в базе данных
Трек 14  нет в базе данных
Трек 15  нет в базе данных
Трек 16  нет в базе данных
Трек 17  нет в базе данных
Трек 18  нет в базе данных
Трек 19  нет в базе данных
Трек 20  нет в базе данных
Трек 21  нет в базе данных
Трек 22  нет в базе данных
Трек 23  нет в базе данных
Трек 24  нет в базе данных
Трек 25  нет в базе данных
 
Ни одного трека нет в базе AccurateRip

Конец отчёта
Релиз: pic


Страница 1 из 1

new_topic  reply_topic

Текущее время: 27-Окт 03:52
Часовой пояс: GMT + 4

m Сделано с любовью PR-CY.ru Каталог webplus.info