Вход на сайт

Имя:
Пароль:

· Забыли пароль?
logo
Портал Форум
Регистрация Вход


new_topic  reply_topic

  (Pop) Союз 44, non-stop - 2009, FLAC (image + .cue)

pic
Год выпуска: 2009
Страна: Россия
Жанр: Pop
Номер #: SZCD 6246-09 (Студия "СОЮЗ")
Продолжительность: 1:17:57

Тип издания: сборник
Аудио кодек: FLAC
Тип рипа: (image + .cue)
Битрейт аудио: lossless

Треклист:
  1. Quest Pistols – Белая Стрекоза Любви
  2. БИС – Кораблики
  3. Винтаж – Ева
  4. Денис Майданов - Вечная любовь
  5. Гости из будущего – Я твоя киска
  6. Серега – Кружим
  7. Валерия - Никто как ты
  8. Авария – Планета Любовь
  9. ВИА Гра – Анти-гейша
  10. Стас Михайлов - Мир без тебя
  11. Татьяна Зыкина – Водопадами
  12. Макс Покровский – Шоппинг
  13. Лука – Лето завтрашнего дня
  14. Любэ – Все опять начинается
  15. OPIUM Project – Губы шепчут
  16. Святослав Бах - Где же ты, девочка моей мечты
  17. Тутси – Было бы «Горько!»
  18. Chiliбомберс – Тихая
  19. Ника - Подари мне поцелуй
  20. Трофим – Корпоративная тусовка
  21. Шуфутинский - Белые розы
  22. Павло Шевчук и гр. Зурбаган - Я сложный

Код:

Exact Audio Copy V0.99 prebeta 5 from 4. May 2009

Отчёт EAC об извлечении, выполненном 29. января 2012, 21:09

Various / Союз-44

Дисковод: TSSTcorpCDDVDW SH-S223B   Adapter: 2  ID: 0

Режим чтения                 : Достоверность
Использование точного потока : Да
Отключение кэша аудио        : Да
Использование указателей C2  : Нет

Коррекция смещения при чтении                     : 6
Способность читать области Lead-in и Lead-out     : Нет
Заполнение пропущенных сэмплов тишиной            : Да
Удаление блоков с тишиной в начале и конце        : Нет
При вычислениях CRC использовались нулевые сэмплы : Да
Интерфейс                                         : Встроенный Win32-интерфейс для Win NT/2000

Выходной формат : Внутренние WAV-операции
Формат сэмплов  : 44.100 Гц; 16 бит; стерео

TOC извлечённого CD

     Трек |   Старт  | Длительность | Начальный сектор | Конечный сектор
    ---------------------------------------------------------------------
       1  |  0:00.00 |    3:02.52   |           0      |      13701     
       2  |  3:02.52 |    3:24.28   |       13702      |      29029     
       3  |  6:27.05 |    3:58.33   |       29030      |      46912     
       4  | 10:25.38 |    3:18.23   |       46913      |      61785     
       5  | 13:43.61 |    3:43.07   |       61786      |      78517     
       6  | 17:26.68 |    3:55.02   |       78518      |      96144     
       7  | 21:21.70 |    3:22.19   |       96145      |     111313     
       8  | 24:44.14 |    4:34.02   |      111314      |     131865     
       9  | 29:18.16 |    3:31.35   |      131866      |     147725     
      10  | 32:49.51 |    3:21.25   |      147726      |     162825     
      11  | 36:11.01 |    3:43.30   |      162826      |     179580     
      12  | 39:54.31 |    2:35.21   |      179581      |     191226     
      13  | 42:29.52 |    3:10.22   |      191227      |     205498     
      14  | 45:39.74 |    3:50.26   |      205499      |     222774     
      15  | 49:30.25 |    3:47.71   |      222775      |     239870     
      16  | 53:18.21 |    3:15.06   |      239871      |     254501     
      17  | 56:33.27 |    3:17.28   |      254502      |     269304     
      18  | 59:50.55 |    3:16.28   |      269305      |     284032     
      19  | 63:07.08 |    3:24.48   |      284033      |     299380     
      20  | 66:31.56 |    2:57.46   |      299381      |     312701     
      21  | 69:29.27 |    3:58.74   |      312702      |     330625     
      22  | 73:28.26 |    4:29.00   |      330626      |     350800     

Характеристики диапазона извлечения и сообщения об ошибках

Выбранный диапазон

     Имя файла M:\Сборники\Сборники СОЮЗ\Союз-44 (2009) lossless, non-stop\Союз-44.wav

     Пиковый уровень 96.6 %
     Качество диапазона 100.0 %
     CRC теста 5BA36AE4
     CRC копии 5BA36AE4
     Копирование... OK

Ошибок не произошло

 
AccurateRip: сводка
 
Трек  1  нет в базе данных
Трек  2  нет в базе данных
Трек  3  нет в базе данных
Трек  4  нет в базе данных
Трек  5  нет в базе данных
Трек  6  нет в базе данных
Трек  7  нет в базе данных
Трек  8  нет в базе данных
Трек  9  нет в базе данных
Трек 10  нет в базе данных
Трек 11  нет в базе данных
Трек 12  нет в базе данных
Трек 13  нет в базе данных
Трек 14  нет в базе данных
Трек 15  нет в базе данных
Трек 16  нет в базе данных
Трек 17  нет в базе данных
Трек 18  нет в базе данных
Трек 19  нет в базе данных
Трек 20  нет в базе данных
Трек 21  нет в базе данных
Трек 22  нет в базе данных
 
Ни одного трека нет в базе AccurateRip

Конец отчёта
Релиз: pic


Страница 1 из 1

new_topic  reply_topic

Текущее время: 27-Окт 06:53
Часовой пояс: GMT + 4

m Сделано с любовью PR-CY.ru Каталог webplus.info