Вход на сайт

Имя:
Пароль:

· Забыли пароль?
logo
Портал Форум
Регистрация Вход


new_topic  reply_topic

  (Italo-Disco, Synthpop) Siberian Heat - Mystic Time - 2012, FLAC (image + .cue) lossless

pic
Год выпуска: 2012
Страна: Россия
Производитель: Россия
Жанр: Italo-Disco, Synthpop, Hi NRG
Номер #: SP 0004 (SP records)
Продолжительность: 1:07:18

Тип контента: альбом
Аудио кодек: FLAC
Тип рипа: (image + .cue)
Битрейт аудио: lossless

Треклист:

  1. Intro
  2. Siberian Girl, Siberian Boy
  3. In Your City
  4. You Can't Be Mine
  5. Little Lady
  6. Just Say Hello
  7. Magic Blue Eyes
  8. She's My Girl, She's My Child
  9. Sorry
  10. Letters
  11. Fight For Your Dreams
  12. Flute Cries
  13. Angel's Heart
  14. Elen (Instrumental)
  15. Vitaly

Код:

Exact Audio Copy V0.99 prebeta 5 from 4. May 2009

Отчёт EAC об извлечении, выполненном 20. июня 2012, 19:50

Siberian Heat / Mystic Time

Дисковод: TSSTcorpCDDVDW SH-S223B   Adapter: 2  ID: 0

Режим чтения                 : Достоверность
Использование точного потока : Да
Отключение кэша аудио        : Да
Использование указателей C2  : Нет

Коррекция смещения при чтении                     : 6
Способность читать области Lead-in и Lead-out     : Нет
Заполнение пропущенных сэмплов тишиной            : Да
Удаление блоков с тишиной в начале и конце        : Нет
При вычислениях CRC использовались нулевые сэмплы : Да
Интерфейс                                         : Встроенный Win32-интерфейс для Win NT/2000

Выходной формат : Внутренние WAV-операции
Формат сэмплов  : 44.100 Гц; 16 бит; стерео

TOC извлечённого CD

     Трек |   Старт  | Длительность | Начальный сектор | Конечный сектор
    ---------------------------------------------------------------------
       1  |  0:00.00 |    1:09.15   |           0      |       5189     
       2  |  1:09.15 |    4:32.16   |        5190      |      25605     
       3  |  5:41.31 |    5:13.23   |       25606      |      49103     
       4  | 10:54.54 |    4:41.19   |       49104      |      70197     
       5  | 15:35.73 |    4:22.15   |       70198      |      89862     
       6  | 19:58.13 |    4:50.19   |       89863      |     111631     
       7  | 24:48.32 |    5:49.16   |      111632      |     137822     
       8  | 30:37.48 |    3:24.16   |      137823      |     153138     
       9  | 34:01.64 |    4:50.18   |      153139      |     174906     
      10  | 38:52.07 |    3:42.21   |      174907      |     191577     
      11  | 42:34.28 |    5:04.13   |      191578      |     214390     
      12  | 47:38.41 |    5:04.28   |      214391      |     237218     
      13  | 52:42.69 |    4:23.20   |      237219      |     256963     
      14  | 57:06.14 |    5:40.17   |      256964      |     282480     
      15  | 62:46.31 |    4:32.23   |      282481      |     302903     

Характеристики диапазона извлечения и сообщения об ошибках

Выбранный диапазон

     Имя файла M:\SpaceSynth\Siberian Heat (lossless)\Siberian Heat - Mystic Time (2012)\Siberian Heat - Mystic Time.wav

     Пиковый уровень 86.6 %
     Качество диапазона 100.0 %
     CRC теста A8A41C39
     CRC копии A8A41C39
     Копирование... OK

Ошибок не произошло

 
AccurateRip: сводка
 
Трек  1  нет в базе данных
Трек  2  нет в базе данных
Трек  3  нет в базе данных
Трек  4  нет в базе данных
Трек  5  нет в базе данных
Трек  6  нет в базе данных
Трек  7  нет в базе данных
Трек  8  нет в базе данных
Трек  9  нет в базе данных
Трек 10  нет в базе данных
Трек 11  нет в базе данных
Трек 12  нет в базе данных
Трек 13  нет в базе данных
Трек 14  нет в базе данных
Трек 15  нет в базе данных
 
Ни одного трека нет в базе AccurateRip

Конец отчёта
dimassamid прикольно наши выпустили! Как сам проект в целом?
Лучшее, что я слушал за последнее время. Выпущено на лейбле SP records, принадлежащему Сергею Подосенову. Штамповка очень качественная, выпущено на золотых матрицах, как и все три предыдущих релиза SP records.

Цитата:

pic
Дамы и господа!

Мы очень рады представить вашему вниманию первый студийный альбом нашего диско-проекта "SIBERIAN HEAT - MYSTIC TIME"! Мы наконец-то сделали это! И мы безмерно счастливы, что отныне можем поделиться с вами нашими песнями в хорошем качестве.

Альбом печатался на заводе в Екатеринбурге. Все сделано качественно, а сам диск с золотым напылением!!! Чтобы было приятно не только слушать наши песни, но и держать в руках сам альбом. А Сергею Подосенову мы выражаем благодарность за все, что он для нас сделал! За его безграничный энтузиазм и веру в наше общее дело! А цель у нас одна: вернуть людям музыку ДИСКО! Качественную музыку!

Все песни, демонстрационные версии которых вы слышали ранее и, возможно, уже давно скачали с интернета, на альбоме "MYSTIC TIME" - СДЕЛАНЫ ПО-НОВОМУ! Какие-то песни изменились сильно, какие-то не очень.

В общем, от вас что требуется: приобрести наш альбом, послушать, и по-возможности написать свои отзывы.

ВСЕМ УДАЧИ!

Наши наилучшие пожелания,

группа SIBERIAN HEAT.

Цитата:

Штамповка очень качественная, выпущено на золотых матрицах
Очень интересно даже. Послушал на трубе, понравились трацки, куплю себе диск

Alex2GB писал(а):

куплю себе диск
Ты как Лёня Голубков "Куплю жене сапоги"
Альбом действительно выпустили отличный. Трацки разных стилей, вообщем очень красочный. Спасибо за альбом.

Цитата:

Ты как Лёня Голубков "Куплю жене сапоги"
Ты как всегда в яблочко
Да земели посторались))) Молодцы! )))
А что это SpaceSynth разве ? Пародия на диско 80 х ! имхо
PIONEERS прочитай еще раз что за стиль написан

dimka007 писал(а):

PIONEERS прочитай еще раз что за стиль написан
На ласковый май очень похоже ..................
Открыто для всех!
Такое ОЧУЧЕНИЕ, что я попал на закат 80-х. Кому-то должно понравится, т.к. напоминает многие наши группы тех времён.
Спасибо
большое спасибо

Страница 1 из 2

Страницы:  1, 2  След.

new_topic  reply_topic

Текущее время: 23-Янв 17:12
Часовой пояс: GMT + 4

m Сделано с любовью PR-CY.ru Каталог webplus.info