Вход на сайт

Имя:
Пароль:

· Забыли пароль?
logo
Портал Форум
Регистрация Вход


new_topic  reply_topic

  (Eurodance) Hot Hits Vol. 1 1995, FLAC tracks

pic
Год выпуска: 1995
Страна: Netherlands
Производитель: ToCo International
Жанр: Eurodance
Номер #: 9310434
Продолжительность: 1 hour 16:49 minutes

Тип издания: сборник
Аудио кодек: FLAC
Тип рипа: tracks
Битрейт аудио: lossless

Треклист:

WHIGFIELD - Saturday Night
TECHNOTRONIC - Recall
D.J. BOBO - Ther Is A Party
ACTIVATE - I Say What I Want
KURTIS BLOW - Freak Rock Till The Break Of Dawn
JOHNN KELVIN - Satisfaction Guaranteed
2 BROTHERS ON THE 4TH FLOOR - Fly
CARTOUCHE - Touch The Sky (95 Re-Mix)
IMPERIO - Nostra Culpa
C.B. MILTON - It's A Loving Thing
RAZZLE DAZZLE - Pick Up The Fiddle
UNITY POWER - I Feel The Music
CAUGHT IN THE ACT - My Arms Keep Missing You
GOMPIE - Alice, Who Is Alice
2 UNLIMITED - Nothing Like The Rain
CORONA - Try Me Out

Доп. информация: Диск был мной куплен в Объединённых Арабских Эмиратах. Информации на дискогсе об этом сборнике нет.
Сканы обложек и самого диска сделаны с разрешением 600 dpi + скан матрицы диска + фото самого диска.

Код:

Exact Audio Copy V1.0 beta 2 from 29. April 2011

Отчёт EAC об извлечении, выполненном 10. августа 2012, 19:28

- / Hot Hits Vol. 1

Дисковод: ASUS    DRW-2014L1T   Adapter: 4  ID: 0

Режим чтения                 : Достоверность
Использование точного потока : Да
Отключение кэша аудио        : Да
Использование указателей C2  : Нет

Коррекция смещения при чтении                     : 6
Способность читать области Lead-in и Lead-out     : Нет
Заполнение пропущенных сэмплов тишиной            : Да
Удаление блоков с тишиной в начале и конце        : Нет
При вычислениях CRC использовались нулевые сэмплы : Да
Интерфейс                                         : Встроенный Win32-интерфейс для Win NT/2000
Обработка зазоров                                 : Добавлено к предыдущему треку

Выходной формат          : Пользовательский кодировщик
Выбранный битрейт        : 1024 kBit/s
Качество                 : Высокий
Добавление ID3-тега      : Нет
Утилита сжатия           : C:\Program Files\Exact Audio Copy\FLAC\FLAC.EXE
Дополнительные параметры : -6 -V -T "ARTIST=%artist%" -T "TITLE=%title%" -T "ALBUM=%albumtitle%" -T "DATE=%year%" -T "TRACKNUMBER=%tracknr%" -T "GENRE=%genre%" -T "COMMENT=%comment%" -T "BAND=%albuminterpret%" -T "COMPOSER=%composer%" %haslyrics%--tag-from-

TOC извлечённого CD

     Трек |   Старт  | Длительность | Начальный сектор | Конечный сектор
    ---------------------------------------------------------------------
       1  |  0:00.00 |    3:50.30   |           0      |      17279     
       2  |  3:50.30 |    5:40.45   |       17280      |      42824     
       3  |  9:31.00 |    5:37.70   |       42825      |      68169     
       4  | 15:08.70 |    5:24.45   |       68170      |      92514     
       5  | 20:33.40 |    3:39.00   |       92515      |     108939     
       6  | 24:12.40 |    5:15.20   |      108940      |     132584     
       7  | 29:27.60 |    5:09.47   |      132585      |     155806     
       8  | 34:37.32 |    5:08.30   |      155807      |     178936     
       9  | 39:45.62 |    5:24.30   |      178937      |     203266     
      10  | 45:10.17 |    5:51.23   |      203267      |     229614     
      11  | 51:01.40 |    3:42.57   |      229615      |     246321     
      12  | 54:44.22 |    3:45.45   |      246322      |     263241     
      13  | 58:29.67 |    4:11.60   |      263242      |     282126     
      14  | 62:41.52 |    3:58.20   |      282127      |     299996     
      15  | 66:39.72 |    4:05.13   |      299997      |     318384     
      16  | 70:45.10 |    6:04.55   |      318385      |     345739     

Трек  1

     Имя файла E:\This EAC has made Federal\ - WHIGFIELD - Saturday Night.wav

     Длина предзазора  0:00:02.00

     Пиковый уровень 99.7 %
     Скорость извлечения 4.2 X
     Качество трека 99.9 %
     CRC теста D684C48D
     CRC копии D684C48D
     Трек не обнаружен в базе AccurateRip
     Копирование... OK

Трек  2

     Имя файла E:\This EAC has made Federal\ - TECHNOTRONIC - Recall.wav

     Длина предзазора  0:00:03.60

     Пиковый уровень 97.7 %
     Скорость извлечения 5.0 X
     Качество трека 99.9 %
     CRC теста 5B207059
     CRC копии 5B207059
     Трек не обнаружен в базе AccurateRip
     Копирование... OK

Трек  3

     Имя файла E:\This EAC has made Federal\ - D.J. BOBO - Ther Is A Party.wav

     Длина предзазора  0:00:03.08

     Пиковый уровень 96.6 %
     Скорость извлечения 7.1 X
     Качество трека 100.0 %
     CRC теста 569F9F62
     CRC копии 569F9F62
     Трек не обнаружен в базе AccurateRip
     Копирование... OK

Трек  4

     Имя файла E:\This EAC has made Federal\ - ACTIVATE - I Say What I Want.wav

     Длина предзазора  0:00:04.70

     Пиковый уровень 92.3 %
     Скорость извлечения 7.6 X
     Качество трека 100.0 %
     CRC теста D94001B5
     CRC копии D94001B5
     Трек не обнаружен в базе AccurateRip
     Копирование... OK

Трек  5

     Имя файла E:\This EAC has made Federal\ - KURTIS BLOW - Freak Rock Till The Break Of Dawn.wav

     Длина предзазора  0:00:03.05

     Пиковый уровень 91.9 %
     Скорость извлечения 7.8 X
     Качество трека 100.0 %
     CRC теста 48A6732C
     CRC копии 48A6732C
     Трек не обнаружен в базе AccurateRip
     Копирование... OK

Трек  6

     Имя файла E:\This EAC has made Federal\ - JOHNN KELVIN - Satisfaction Guaranteed.wav

     Длина предзазора  0:00:03.60

     Пиковый уровень 99.5 %
     Скорость извлечения 8.5 X
     Качество трека 100.0 %
     CRC теста 56077AC1
     CRC копии 56077AC1
     Трек не обнаружен в базе AccurateRip
     Копирование... OK

Трек  7

     Имя файла E:\This EAC has made Federal\ - 2 BROTHERS ON THE 4TH FLOOR - Fly.wav

     Длина предзазора  0:00:02.23

     Пиковый уровень 93.8 %
     Скорость извлечения 9.0 X
     Качество трека 100.0 %
     CRC теста 07CDFB34
     CRC копии 07CDFB34
     Трек не обнаружен в базе AccurateRip
     Копирование... OK

Трек  8

     Имя файла E:\This EAC has made Federal\ - CARTOUCHE - Touch The Sky (95 Re-Mix).wav

     Длина предзазора  0:00:03.40

     Пиковый уровень 98.1 %
     Скорость извлечения 7.1 X
     Качество трека 99.9 %
     CRC теста 9F55D733
     CRC копии 9F55D733
     Трек не обнаружен в базе AccurateRip
     Копирование... OK

Трек  9

     Имя файла E:\This EAC has made Federal\ - IMPERIO - Nostra Culpa.wav

     Длина предзазора  0:00:03.70

     Пиковый уровень 100.0 %
     Скорость извлечения 9.8 X
     Качество трека 100.0 %
     CRC теста 754ABF75
     CRC копии 754ABF75
     Трек не обнаружен в базе AccurateRip
     Копирование... OK

Трек 10

     Имя файла E:\This EAC has made Federal\ - C.B. MILTON - It's A Loving Thing.wav

     Длина предзазора  0:00:03.15

     Пиковый уровень 99.0 %
     Скорость извлечения 10.4 X
     Качество трека 100.0 %
     CRC теста 62E4BE52
     CRC копии 62E4BE52
     Трек не обнаружен в базе AccurateRip
     Копирование... OK

Трек 11

     Имя файла E:\This EAC has made Federal\ - RAZZLE DAZZLE - Pick Up The Fiddle.wav

     Длина предзазора  0:00:03.30

     Пиковый уровень 92.1 %
     Скорость извлечения 7.5 X
     Качество трека 99.9 %
     CRC теста 7AF2A755
     CRC копии 7AF2A755
     Трек не обнаружен в базе AccurateRip
     Копирование... OK

Трек 12

     Имя файла E:\This EAC has made Federal\ - UNITY POWER - I Feel The Music.wav

     Длина предзазора  0:00:02.20

     Пиковый уровень 98.0 %
     Скорость извлечения 10.4 X
     Качество трека 100.0 %
     CRC теста D2E01B3C
     CRC копии D2E01B3C
     Трек не обнаружен в базе AccurateRip
     Копирование... OK

Трек 13

     Имя файла E:\This EAC has made Federal\ - CAUGHT IN THE ACT - My Arms Keep Missing You.wav

     Длина предзазора  0:00:04.47

     Пиковый уровень 99.2 %
     Скорость извлечения 10.8 X
     Качество трека 100.0 %
     CRC теста EB3FAD7C
     CRC копии EB3FAD7C
     Трек не обнаружен в базе AccurateRip
     Копирование... OK

Трек 14

     Имя файла E:\This EAC has made Federal\ - GOMPIE - Alice, Who Is Alice.wav

     Длина предзазора  0:00:03.52

     Пиковый уровень 92.0 %
     Скорость извлечения 10.9 X
     Качество трека 100.0 %
     CRC теста 891728D8
     CRC копии 891728D8
     Трек не обнаружен в базе AccurateRip
     Копирование... OK

Трек 15

     Имя файла E:\This EAC has made Federal\ - 2 UNLIMITED - Nothing Like The Rain.wav

     Длина предзазора  0:00:02.70

     Пиковый уровень 92.3 %
     Скорость извлечения 11.2 X
     Качество трека 100.0 %
     CRC теста 79AF9367
     CRC копии 79AF9367
     Трек не обнаружен в базе AccurateRip
     Копирование... OK

Трек 16

     Имя файла E:\This EAC has made Federal\ - CORONA - Try Me Out.wav

     Длина предзазора  0:00:03.65

     Пиковый уровень 94.7 %
     Скорость извлечения 12.0 X
     Качество трека 100.0 %
     CRC теста D1AE1808
     CRC копии D1AE1808
     Трек не обнаружен в базе AccurateRip
     Копирование... OK

Ни одного трека нет в базе AccurateRip

Ошибок не произошло

Конец отчёта
Для меломанов!
nice

freefresh писал(а):

nice
Серьёзно? Возможно подсоберу в кучу некоторые релизы да и выставлю их на продажу, потому что переслушивая, нахожу релизы которые мне абсолютно не интересны... В том числе и этот диск.

У меня тоже есть такие сборники, что ни в одних каталогах не значатся - братья болгары шпарили дай бог в свое время!

Страница 1 из 1

new_topic  reply_topic

Текущее время: 18-Янв 11:05
Часовой пояс: GMT + 4

m Сделано с любовью PR-CY.ru Каталог webplus.info