Вход на сайт

Имя:
Пароль:

· Забыли пароль?
logo
Портал Форум
Регистрация Вход


new_topic  reply_topic

  (Pop) Союз 20, non-stop - 1997, FLAC (image + .cue)

pic
Год выпуска: 1997
Страна: Россия
Жанр: Pop
Номер #: SZCD 0754-97 (Студия "СОЮЗ")
Продолжительность: 1:12:38

Тип издания: сборник
Аудио кодек: FLAC
Тип рипа: (image + .cue)
Битрейт аудио: lossless

Треклист:

  1. Сергей Демидович - Любовь
  2. Татьяна Овсиенко - Не забудь
  3. Александр Иванов - Ночь
  4. Владмир Шурочкин - Губы в губы
  5. Диана - Я больше не твоя
  6. Дмитрий Маликов - Одна ты такая
  7. Мурат Насыров - Мальчик хочет в Тамбов
  8. Алла Горбачева - Он и она
  9. Shura - Холодная луна
  10. Лариса Черникова - Тайна
  11. Кай Метов - Дай же мне
  12. Президент и Амазонка - Детская плясовая
  13. Золотое кольцо - На забытом берегу
  14. Белый орёл - Дорогая пропажа
  15. Ляпис Трубецкой - Паренёк
  16. Арнольд Петросов - Грязнуля
  17. Татьяна Овсиенко - Колечко
  18. Восток - Снежная королева
  19. Виктор Рыбин - Встречай меня
  20. Светлана Рерих - Ночная Москва
  21. Лицей - Паровозик-облачко
  22. Леонид Агутин & Сосо Павлиашвили - Каких-то тысяча лет
  23. Линда - Марихуана
  24. Игорь Мельник - Московский дождь
  25. Филипп Киркоров - Мало
  26. Ника - Это не мой секрет
  27. Александр Шевченко - Будет всё, как ты захочешь
  28. Алена Апина - Между двух берегов
  29. Балаган лимитед - Чё те надо?
  30. Лайма Вайкуле & Чай вдвоём - Прощай...

Код:

Exact Audio Copy V0.99 prebeta 5 from 4. May 2009

Отчёт EAC об извлечении, выполненном 19. октября 2012, 15:47

Various / Союз-20

Дисковод: TSSTcorpCDDVDW SH-S223B   Adapter: 2  ID: 0

Режим чтения                 : Достоверность
Использование точного потока : Да
Отключение кэша аудио        : Да
Использование указателей C2  : Нет

Коррекция смещения при чтении                     : 6
Способность читать области Lead-in и Lead-out     : Нет
Заполнение пропущенных сэмплов тишиной            : Да
Удаление блоков с тишиной в начале и конце        : Нет
При вычислениях CRC использовались нулевые сэмплы : Да
Интерфейс                                         : Встроенный Win32-интерфейс для Win NT/2000

Выходной формат : Внутренние WAV-операции
Формат сэмплов  : 44.100 Гц; 16 бит; стерео

TOC извлечённого CD

     Трек |   Старт  | Длительность | Начальный сектор | Конечный сектор
    ---------------------------------------------------------------------
       1  |  0:00.10 |    2:40.62   |          10      |      12071     
       2  |  2:40.72 |    1:46.48   |       12072      |      20069     
       3  |  4:27.45 |    2:30.55   |       20070      |      31374     
       4  |  6:58.25 |    2:37.20   |       31375      |      43169     
       5  |  9:35.45 |    2:21.45   |       43170      |      53789     
       6  | 11:57.15 |    2:56.50   |       53790      |      67039     
       7  | 14:53.65 |    2:30.17   |       67040      |      78306     
       8  | 17:24.07 |    2:36.28   |       78307      |      90034     
       9  | 20:00.35 |    2:59.52   |       90035      |     103511     
      10  | 23:00.12 |    2:12.28   |      103512      |     113439     
      11  | 25:12.40 |    2:07.30   |      113440      |     122994     
      12  | 27:19.70 |    1:49.32   |      122995      |     131201     
      13  | 29:09.27 |    2:18.55   |      131202      |     141606     
      14  | 31:28.07 |    2:27.08   |      141607      |     152639     
      15  | 33:55.15 |    2:27.55   |      152640      |     163719     
      16  | 36:22.70 |    2:26.70   |      163720      |     174739     
      17  | 38:49.65 |    2:09.57   |      174740      |     184471     
      18  | 40:59.47 |    2:10.73   |      184472      |     194294     
      19  | 43:10.45 |    2:35.67   |      194295      |     205986     
      20  | 45:46.37 |    2:05.53   |      205987      |     215414     
      21  | 47:52.15 |    2:23.25   |      215415      |     226164     
      22  | 50:15.40 |    2:32.25   |      226165      |     237589     
      23  | 52:47.65 |    2:20.55   |      237590      |     248144     
      24  | 55:08.45 |    2:33.10   |      248145      |     259629     
      25  | 57:41.55 |    2:31.65   |      259630      |     271019     
      26  | 60:13.45 |    2:02.60   |      271020      |     280229     
      27  | 62:16.30 |    2:19.05   |      280230      |     290659     
      28  | 64:35.35 |    3:01.60   |      290660      |     304294     
      29  | 67:37.20 |    2:19.20   |      304295      |     314739     
      30  | 69:56.40 |    2:42.12   |      314740      |     326901     

Характеристики диапазона извлечения и сообщения об ошибках

Выбранный диапазон

     Имя файла K:\Русские сборники\Сборники СОЮЗ\Союз-20 (1997) lossless, non-stop\Союз-20.wav

     Пиковый уровень 97.7 %
     Качество диапазона 99.9 %
     CRC теста 901F2CA3
     CRC копии 901F2CA3
     Копирование... OK

Ошибок не произошло

 
AccurateRip: сводка
 
Трек  1  нет в базе данных
Трек  2  нет в базе данных
Трек  3  нет в базе данных
Трек  4  нет в базе данных
Трек  5  нет в базе данных
Трек  6  нет в базе данных
Трек  7  нет в базе данных
Трек  8  нет в базе данных
Трек  9  нет в базе данных
Трек 10  нет в базе данных
Трек 11  нет в базе данных
Трек 12  нет в базе данных
Трек 13  нет в базе данных
Трек 14  нет в базе данных
Трек 15  нет в базе данных
Трек 16  нет в базе данных
Трек 17  нет в базе данных
Трек 18  нет в базе данных
Трек 19  нет в базе данных
Трек 20  нет в базе данных
Трек 21  нет в базе данных
Трек 22  нет в базе данных
Трек 23  нет в базе данных
Трек 24  нет в базе данных
Трек 25  нет в базе данных
Трек 26  нет в базе данных
Трек 27  нет в базе данных
Трек 28  нет в базе данных
Трек 29  нет в базе данных
Трек 30  нет в базе данных
 
Ни одного трека нет в базе AccurateRip

Конец отчёта
Релиз: pic


Страница 1 из 1

new_topic  reply_topic

Текущее время: 27-Окт 04:29
Часовой пояс: GMT + 4

m Сделано с любовью PR-CY.ru Каталог webplus.info