Вход на сайт

Имя:
Пароль:

· Забыли пароль?
logo
Портал Форум
Регистрация Вход


new_topic  reply_topic

  (Euro House) Nina - Godine Nestvarne 1995, FLAC (image + .cue)

pic
Год выпуска: 1995
Страна: Хорватия
Производитель: Хорватия
Жанр: Euro House
Номер #: CD DK 5068273 (CROATIA RECORDS)
Продолжительность: 01:11:00

Тип издания: альбом
Аудио кодек: FLAC
Тип рипа: (image + .cue)
Битрейт аудио: lossless

Треклист:

01. Godine Nestvarne (Extended Mix)
02. Još Uvijek Sam Tu (Extended Mix)
03. Meni Bi Htio (NRG Mix)
04. Jumpin' Down (NRG Mix)
05. Take Me Higher (Euro NRG Mix)
06. Istina (NRG Mix)
07. I Ponekad Kada (Extended Mix)
08. Hear That Sound (Euro NRG Mix)
09. Samo Tvoja Sam Bila (NRG Mix)
10. Da Li Ikada (NRG Mix)
11. Odlaziš Zauvijek (Extended Mix)
12. Istina (Night Mix)
13. Godine Nestvarne (Club Mix)

Код:

Exact Audio Copy V1.0 beta 1 from 15. November 2010

EAC extraction logfile from 13. May 2012, 19:07

Nina Badrić / Godine Nestvarne

Used drive  : TSSTcorpCDDVDW SH-S223B   Adapter: 3  ID: 0

Read mode               : Secure
Utilize accurate stream : Yes
Defeat audio cache      : Yes
Make use of C2 pointers : No

Read offset correction                      : 667
Overread into Lead-In and Lead-Out          : No
Fill up missing offset samples with silence : Yes
Delete leading and trailing silent blocks   : No
Null samples used in CRC calculations       : Yes
Used interface                              : Native Win32 interface for Win NT & 2000

Used output format : Internal WAV Routines
Sample format      : 44.100 Hz; 16 Bit; Stereo

TOC of the extracted CD

     Track |   Start  |  Length  | Start sector | End sector
    ---------------------------------------------------------
        1  |  0:00.00 |  6:13.32 |         0    |    28006   
        2  |  6:13.32 |  5:41.48 |     28007    |    53629   
        3  | 11:55.05 |  5:25.70 |     53630    |    78074   
        4  | 17:21.00 |  5:35.67 |     78075    |   103266   
        5  | 22:56.67 |  5:13.25 |    103267    |   126766   
        6  | 28:10.17 |  5:49.53 |    126767    |   152994   
        7  | 33:59.70 |  6:13.27 |    152995    |   180996   
        8  | 40:13.22 |  5:24.25 |    180997    |   205321   
        9  | 45:37.47 |  5:34.65 |    205322    |   230436   
       10  | 51:12.37 |  5:50.70 |    230437    |   256756   
       11  | 57:03.32 |  4:48.45 |    256757    |   278401   
       12  | 61:52.02 |  3:11.45 |    278402    |   292771   
       13  | 65:03.47 |  6:37.35 |    292772    |   322581   

Range status and errors

Selected range

     Filename C:\Users\miky\Desktop\Ripovi\Nina Badrić - 1995 - Godine Nestvarne.wav

     Peak level 99.7 %
     Extraction speed 1.2 X
     Range quality 100.0 %
     Copy CRC 50428389
     Copy OK

No errors occurred

 
AccurateRip summary
 
Track  1  not present in database
Track  2  not present in database
Track  3  not present in database
Track  4  not present in database
Track  5  not present in database
Track  6  not present in database
Track  7  not present in database
Track  8  not present in database
Track  9  not present in database
Track 10  not present in database
Track 11  not present in database
Track 12  not present in database
Track 13  not present in database
 
None of the tracks are present in the AccurateRip database

End of status report
Альбом супер! Рекомендую всем

Афигеннские треки, фаворит моего плеера последние 3 дня

Спасибо!!!

Страница 1 из 1

new_topic  reply_topic

Текущее время: 25-Янв 01:45
Часовой пояс: GMT + 4

m Сделано с любовью PR-CY.ru Каталог webplus.info