Вход на сайт

Имя:
Пароль:

· Забыли пароль?
logo
Портал Форум
Регистрация Вход


new_topic  reply_topic

  (Eurodance, Euro House) Various Artists - DJ Hits 35 1995, APE (image + .cue)

pic
Год выпуска: 1995
Страна: Bulgaria
Производитель: Bulgaria
Жанр: Eurodance, Euro House
Номер #: TOP VM 345521 - 2
Продолжительность: 71:49

Тип издания: сборник
Аудио кодек: APE
Тип рипа: (image + .cue)
Битрейт аудио: lossless

Треклист:

01. Tokyo Ghetto Pussy - Everybody On The Floor ( Pump It ) ( Pump It Remix )
02. One Love Feat. Marky Mark - That's The Way I Like It ( Club Mix )
03. Mr. President - Gonna Get Along ( Without Ya Now ) ( Extended )
04. Joe Samba Jr. Feat. African Vibes - I Like Summer ( Radio Remix )
05. E-Rotic - Sex Me ( Set Me Free ) ( 7" Mix )
06. Cappella - Tell Me The Way ( House Mix )
07. Ace Of Base - Lucky Love ( Original Mix )
08. 20 Fingers - Move Too Fast ( Move Remix )
09. The Grid - Diablo ( Radio Mix )
10. Captain Hollywood Project - The Way Love Is ( Ragga Mix )
11. Bad Boys - Papaumama ( Speed Mix )
12. Real Mc' Coy - Come And Get Your Love ( N-R-G Mix )
13. Exotica Feat. Itsy Foster - The Summer Is Magic ( Remix )
14. Umboza - Cry India ( Radio Mix )
15. C.J. Lewis - R To The A ( 7' Radio )
16. Reddbone Feat. Rhonda - Walking On Sunshine ( Solution Airplay Mix )
17. Paula Abdul - Crazy Cool ( Single Remix )
18. Grace - I Want To Live ( Oakenfold & Osbourne Mix )

Код:

Exact Audio Copy V0.99 prebeta 5 from 4. May 2009

Отчёт EAC об извлечении, выполненном 11. ноября 2012, 17:44

Various  Artists / DJ  Hits  35

Дисковод: Optiarc DVD RW AD-7263S   Adapter: 5  ID: 0

Режим чтения                 : Достоверность
Использование точного потока : Да
Отключение кэша аудио        : Да
Использование указателей C2  : Нет

Коррекция смещения при чтении                     : 48
Способность читать области Lead-in и Lead-out     : Нет
Заполнение пропущенных сэмплов тишиной            : Да
Удаление блоков с тишиной в начале и конце        : Нет
При вычислениях CRC использовались нулевые сэмплы : Да
Интерфейс                                         : Встроенный Win32-интерфейс для Win NT/2000

Выходной формат          : Monkey's Audio (без потерь)
Выбранный битрейт        : Extra High Lossless Compression
Качество                 : Высокий
Добавление ID3-тэга      : Нет
Утилита сжатия           : C:\Program Files (x86)\Monkey's Audio\MAC.exe
Дополнительные параметры : -w "Artist=%a" -w "Title=%t" -w "Album=%g" -w "Year=%y" -w "Track=%n" -w "Genre=%m" -h %s %d

TOC извлечённого CD

     Трек |   Старт  | Длительность | Начальный сектор | Конечный сектор
    ---------------------------------------------------------------------
       1  |  0:00.00 |    3:39.00   |           0      |      16424     
       2  |  3:39.00 |    5:43.50   |       16425      |      42199     
       3  |  9:22.50 |    4:26.10   |       42200      |      62159     
       4  | 13:48.60 |    3:49.20   |       62160      |      79354     
       5  | 17:38.05 |    4:01.10   |       79355      |      97439     
       6  | 21:39.15 |    3:54.00   |       97440      |     114989     
       7  | 25:33.15 |    2:54.35   |      114990      |     128074     
       8  | 28:27.50 |    3:42.30   |      128075      |     144754     
       9  | 32:10.05 |    3:54.05   |      144755      |     162309     
      10  | 36:04.10 |    3:59.30   |      162310      |     180264     
      11  | 40:03.40 |    4:08.50   |      180265      |     198914     
      12  | 44:12.15 |    5:14.50   |      198915      |     222514     
      13  | 49:26.65 |    3:38.70   |      222515      |     238934     
      14  | 53:05.60 |    3:31.60   |      238935      |     254819     
      15  | 56:37.45 |    3:56.05   |      254820      |     272524     
      16  | 60:33.50 |    3:25.10   |      272525      |     287909     
      17  | 63:58.60 |    3:59.65   |      287910      |     305899     
      18  | 67:58.50 |    3:50.40   |      305900      |     323189     

Характеристики диапазона извлечения и сообщения об ошибках

Выбранный диапазон

     Имя файла D:\Bit Torrent\DJ  Hits\Various  Artists - DJ  Hits  35\Various  Artists - DJ  Hits  35.wav

     Пиковый уровень 100.0 %
     Качество диапазона 99.9 %
     CRC теста B8B3A920
     CRC копии B8B3A920
     Копирование... OK

Ошибок не произошло

 
AccurateRip: сводка
 
Трек  1  точное извлечение (доверие 5)  [B7006F56]
Трек  2  точное извлечение (доверие 5)  [D5073F4F]
Трек  3  точное извлечение (доверие 5)  [63E0A09B]
Трек  4  точное извлечение (доверие 5)  [6D49588F]
Трек  5  точное извлечение (доверие 5)  [96DF54F6]
Трек  6  точное извлечение (доверие 5)  [3954EDCF]
Трек  7  точное извлечение (доверие 5)  [E968AC29]
Трек  8  точное извлечение (доверие 4)  [FDE3D481]
Трек  9  точное извлечение (доверие 5)  [17CCA3B8]
Трек 10  точное извлечение (доверие 5)  [C865E369]
Трек 11  точное извлечение (доверие 5)  [B09BD709]
Трек 12  точное извлечение (доверие 5)  [B0417C52]
Трек 13  точное извлечение (доверие 5)  [D6DBB625]
Трек 14  точное извлечение (доверие 5)  [6B3C8DBD]
Трек 15  точное извлечение (доверие 5)  [3A7FB0F8]
Трек 16  точное извлечение (доверие 5)  [9A36A6FB]
Трек 17  точное извлечение (доверие 4)  [987D17C8]
Трек 18  точное извлечение (доверие 4)  [C088CD13]
 
Все треки извлечены точно

Конец отчёта

Страница 1 из 1

new_topic  reply_topic

Текущее время: 25-Янв 12:12
Часовой пояс: GMT + 4

m Сделано с любовью PR-CY.ru Каталог webplus.info