Вход на сайт

Имя:
Пароль:

· Забыли пароль?
logo
Портал Форум
Регистрация Вход


new_topic  reply_topic

  (Soundtrack) Hits From The Movies. CD2 - 1996, FLAC (image + .cue)

pic
Год выпуска: 1996
Производитель: Европа
Жанр: Soundtrack
Номер #: MDT8276-2 (MasterTone Inc)
Продолжительность: 0:42:18

Тип издания: сборник
Аудио кодек: FLAC
Тип рипа: (image + .cue)
Битрейт аудио: lossless

Треклист:

  1. Brown Wilson - You Sexy Thing (from 'The Full Monty') (4:05)
  2. Bellotte, Walter Faltermeyer, Forsey - Hot Stuff (from 'The Full Monty') (3:37)
  3. Ivey Jr, Sanders, Rasheed, Wonder - Gangsta's Paradise (from 'Dangerous Minds') (3:59)
  4. Elton John, Tim Rice - Circle Of Life (from 'The Lion King') (4:51)
  5. Tammy Wynette, Sherrill - Stand By Your Man (from 'Sleepless In Seattle') (2:41)
  6. Babyface - Not Gon' Cry (from 'Waiting To Exhale') (4:32)
  7. Elvis Presley - Love Is All Around (from 'Four Weddings and a Funeral') (4:36)
  8. Masser, Creed - Greatest Love Of All (from 'The Greatest') (4:47)
  9. Johnny Nash - I Can See Clearly Now (from 'Cool Runnings') (3:03)
  10. Smith, Lord, Routte - Slave To The Vibe (from 'Sliver') (6:02)

Код:

Exact Audio Copy V0.99 prebeta 5 from 4. May 2009

Отчёт EAC об извлечении, выполненном 20. ноября 2012, 2:36

VA / Hits From The Movies. CD2

Дисковод: TSSTcorpCDDVDW SH-S223B   Adapter: 2  ID: 0

Режим чтения                 : Достоверность
Использование точного потока : Да
Отключение кэша аудио        : Да
Использование указателей C2  : Нет

Коррекция смещения при чтении                     : 6
Способность читать области Lead-in и Lead-out     : Нет
Заполнение пропущенных сэмплов тишиной            : Да
Удаление блоков с тишиной в начале и конце        : Нет
При вычислениях CRC использовались нулевые сэмплы : Да
Интерфейс                                         : Встроенный Win32-интерфейс для Win NT/2000

Выходной формат : Внутренние WAV-операции
Формат сэмплов  : 44.100 Гц; 16 бит; стерео

TOC извлечённого CD

     Трек |   Старт  | Длительность | Начальный сектор | Конечный сектор
    ---------------------------------------------------------------------
       1  |  0:00.00 |    4:05.27   |           0      |      18401     
       2  |  4:05.27 |    3:37.30   |       18402      |      34706     
       3  |  7:42.57 |    3:59.51   |       34707      |      52682     
       4  | 11:42.33 |    4:51.72   |       52683      |      74579     
       5  | 16:34.30 |    2:41.42   |       74580      |      86696     
       6  | 19:15.72 |    4:32.06   |       86697      |     107102     
       7  | 23:48.03 |    4:36.70   |      107103      |     127872     
       8  | 28:24.73 |    4:47.08   |      127873      |     149405     
       9  | 33:12.06 |    3:03.43   |      149406      |     163173     
      10  | 36:15.49 |    6:02.31   |      163174      |     190354     

Характеристики диапазона извлечения и сообщения об ошибках

Выбранный диапазон

     Имя файла K:\Саундтреки\Hits From The Movies. 3CD\CD2\Hits From The Movies. CD2.wav

     Пиковый уровень 100.0 %
     Качество диапазона 100.0 %
     CRC теста 60427E11
     CRC копии 60427E11
     Копирование... OK

Ошибок не произошло

 
AccurateRip: сводка
 
Трек  1  нет в базе данных
Трек  2  нет в базе данных
Трек  3  нет в базе данных
Трек  4  нет в базе данных
Трек  5  нет в базе данных
Трек  6  нет в базе данных
Трек  7  нет в базе данных
Трек  8  нет в базе данных
Трек  9  нет в базе данных
Трек 10  нет в базе данных
 
Ни одного трека нет в базе AccurateRip

Конец отчёта

Страница 1 из 1

new_topic  reply_topic

Текущее время: 25-Янв 10:20
Часовой пояс: GMT + 4

m Сделано с любовью PR-CY.ru Каталог webplus.info